<?xml version="1.0" standalone="no"?>
<!DOCTYPE svg PUBLIC "-//W3C//DTD SVG 1.1//EN" "http://www.w3.org/Graphics/SVG/1.1/DTD/svg11.dtd" >
<svg xmlns="http://www.w3.org/2000/svg">
<metadata>Generated by IcoMoon</metadata>
<defs>
<font id="icomoon" horiz-adv-x="1024">
<font-face units-per-em="1024" ascent="960" descent="-64" />
<missing-glyph horiz-adv-x="1024" />
<glyph unicode="&#x20;" horiz-adv-x="512" d="" />
<glyph unicode="&#xe900;" glyph-name="globe" horiz-adv-x="1056" d="M528 864c-82.278 0-162.707-24.398-231.117-70.109s-121.731-110.681-153.217-186.694c-31.486-76.016-39.724-159.658-23.673-240.355 16.052-80.694 55.671-154.819 113.85-212.998s132.303-97.798 212.998-113.85c80.698-16.051 164.342-7.814 240.355 23.674 76.013 31.485 140.986 84.803 186.694 153.216 45.712 68.41 70.109 148.838 70.109 231.117-0.115 110.294-43.981 216.038-121.971 294.028s-183.734 121.856-294.029 121.972zM880 448c0.035-45.158-8.656-89.901-25.6-131.76l-178.8 109.962c-7.603 4.688-16.106 7.728-24.96 8.918l-91.28 12.32c-12.579 1.642-25.36-0.467-36.746-6.061-11.382-5.594-20.864-14.422-27.254-25.379h-34.88l-15.2 31.44c-4.202 8.755-10.352 16.432-17.978 22.442-7.629 6.013-16.528 10.198-26.022 12.237l-32 6.922 31.28 54.96h66.842c10.813 0.022 21.45 2.774 30.918 8l49.002 27.040c4.304 2.4 8.33 5.27 12 8.56l107.638 97.36c10.794 9.671 17.965 22.733 20.336 37.029s-0.202 28.974-7.296 41.611l-1.44 2.6c60.234-28.56 111.13-73.616 146.784-129.938 35.658-56.323 54.608-121.603 54.656-188.262zM589.242 794.64l34.758-62.24-107.638-97.36-48.96-27.040h-66.842c-11.251 0.016-22.307-2.931-32.054-8.55s-17.84-13.706-23.466-23.45l-34.92-60.922-40.6 108.16 43.76 103.482c38.732 29.928 83.292 51.436 130.819 63.146s96.976 13.363 145.181 4.854l-0.038-0.080zM176 448c-0.053 52.32 11.619 103.984 34.16 151.2l45.36-121.082c3.78-10.022 10.016-18.938 18.137-25.926s17.866-11.827 28.343-14.074l85.721-18.438 15.238-31.68c5.29-10.774 13.485-19.856 23.664-26.218s21.933-9.75 33.936-9.782h5.92l-28.918-64.918c-5.098-11.434-6.73-24.106-4.694-36.458 2.032-12.349 7.642-23.83 16.134-33.024l0.56-0.56 78.438-80.8-7.76-40c-91.926 2.141-179.376 40.122-243.691 105.84-64.314 65.718-100.396 153.968-100.549 245.92zM586.32 100.88l4.522 23.238c1.856 9.875 1.376 20.045-1.402 29.702-2.778 9.654-7.779 18.525-14.598 25.898-0.198 0.179-0.384 0.365-0.56 0.563l-78.282 80.758 54.8 122.96 91.28-12.32 182.88-112.48c-26.496-41.61-61.424-77.2-102.528-104.47-41.107-27.27-87.475-45.616-136.112-53.85z" />
<glyph unicode="&#xe901;" glyph-name="view-hide" d="M215.68 821.548c-2.811 3.168-6.222 5.746-10.035 7.586s-7.956 2.904-12.184 3.132c-4.229 0.228-8.46-0.387-12.45-1.807s-7.657-3.617-10.79-6.466c-3.134-2.848-5.671-6.289-7.466-10.126s-2.808-7.989-2.985-12.22c-0.177-4.231 0.488-8.455 1.956-12.427s3.709-7.613 6.595-10.713l76.96-84.681c-145.28-89.16-207.76-226.6-210.52-232.84-1.819-4.093-2.76-8.521-2.76-13s0.94-8.908 2.76-13.001c1.4-3.16 35.28-78.28 110.6-153.6 100.361-100.32 227.121-153.36 366.641-153.36 71.704-0.408 142.684 14.355 208.28 43.32l88-96.844c2.81-3.166 6.221-5.743 10.035-7.586 3.814-1.835 7.955-2.901 12.184-3.132 4.228-0.222 8.46 0.393 12.449 1.809 3.989 1.425 7.657 3.618 10.795 6.468 3.132 2.85 5.666 6.289 7.458 10.121 1.801 3.84 2.816 7.996 2.987 12.228 0.179 4.224-0.486 8.448-1.954 12.423-1.468 3.972-3.712 7.613-6.596 10.713l-639.957 704zM405 518.188l166.68-183.4c-25.1-13.204-53.875-17.699-81.807-12.777s-53.437 18.981-72.513 39.969c-19.075 20.989-30.639 47.718-32.876 75.991s4.979 56.49 20.516 80.217zM512 192.028c-123.121 0-230.681 44.761-319.72 133.001-36.547 36.32-67.632 77.752-92.28 122.999 18.76 35.161 78.64 133.56 189.4 197.52l72-79c-27.874-35.7-42.231-80.105-40.531-125.367s19.347-88.465 49.82-121.974c30.474-33.509 71.813-55.165 116.71-61.141s90.462 4.111 128.64 28.482l58.92-64.8c-52-19.951-107.265-30.030-162.959-29.721zM536 573.749c-8.339 1.591-15.704 6.43-20.474 13.451s-6.558 15.65-4.966 23.989c1.591 8.338 6.43 15.703 13.451 20.474s15.65 6.557 23.989 4.966c40.784-7.907 77.92-28.785 105.868-59.523s45.21-69.686 49.212-111.037c0.79-8.45-1.808-16.867-7.224-23.401s-13.205-10.649-21.655-11.439c-0.999-0.059-2.001-0.059-3 0-7.998-0.034-15.719 2.928-21.642 8.303s-9.618 12.774-10.358 20.737c-2.693 27.505-14.192 53.405-32.785 73.851s-43.29 34.344-70.415 39.63zM989.116 434.988c-1.673-3.76-42.197-93.48-133.436-175.2-3.118-2.882-6.778-5.113-10.767-6.566s-8.226-2.098-12.467-1.897c-4.24 0.201-8.398 1.243-12.232 3.067s-7.266 4.391-10.097 7.555c-2.831 3.162-5.005 6.857-6.394 10.869s-1.967 8.259-1.698 12.495c0.268 4.237 1.376 8.377 3.261 12.181s4.506 7.195 7.714 9.976c44.762 40.215 82.36 87.745 111.203 140.559-24.704 45.29-55.859 86.749-92.483 123.081-89.039 88.16-196.599 132.919-319.719 132.919-25.942 0.032-51.843-2.068-77.44-6.28-4.163-0.736-8.43-0.64-12.556 0.282s-8.027 2.653-11.48 5.092c-3.453 2.439-6.388 5.538-8.636 9.118s-3.765 7.569-4.463 11.738c-0.697 4.169-0.561 8.436 0.399 12.553s2.727 8.003 5.199 11.432c2.471 3.43 5.597 6.336 9.197 8.551s7.604 3.695 11.78 4.354c29.086 4.803 58.519 7.197 88 7.159 139.52 0 266.279-53.040 366.643-153.399 75.315-75.32 109.193-150.48 110.601-153.64 1.818-4.093 2.756-8.521 2.756-13s-0.939-8.908-2.756-13.001h-0.128z" />
<glyph unicode="&#xe902;" glyph-name="question" d="M543.638 388.848l-1.638-0.301v-4.547c0-7.955-3.162-15.587-8.787-21.213s-13.258-8.787-21.213-8.787c-7.955 0-15.587 3.162-21.213 8.787s-8.787 13.258-8.787 21.213v32c0 7.955 3.162 15.587 8.787 21.213s13.258 8.787 21.213 8.787c53.67 0 98 36.57 98 82s-44.33 82-98 82c-53.67 0-98-36.57-98-82v-16c0-7.955-3.162-15.587-8.787-21.213s-13.258-8.787-21.213-8.787c-7.955 0-15.587 3.162-21.213 8.787s-8.787 13.258-8.787 21.213v16c0 78.102 70.662 142 158 142s158-63.898 158-142c0-68.394-54.182-125.898-126.362-139.152zM866 447.997v0.003c0 70.016-20.762 138.458-59.661 196.672-38.896 58.215-94.186 103.588-158.87 130.381s-135.862 33.804-204.531 20.145c-68.669-13.659-131.745-47.374-181.253-96.882s-83.223-112.585-96.882-181.253c-13.659-68.669-6.649-139.846 20.145-204.531s72.166-119.974 130.381-158.87c58.214-38.899 126.656-59.661 196.672-59.661h0.003c93.853 0.106 183.83 37.437 250.195 103.802s103.696 156.342 103.802 250.195zM558 240c0-9.098-2.698-17.99-7.754-25.555-5.053-7.565-12.237-13.462-20.643-16.944s-17.654-4.39-26.576-2.618c-8.925 1.776-17.12 6.157-23.555 12.589-6.432 6.435-10.813 14.63-12.589 23.555-1.773 8.922-0.864 18.17 2.618 26.576s9.379 15.59 16.944 20.643c7.565 5.056 16.458 7.754 25.555 7.754 12.202 0 23.901-4.848 32.528-13.472 8.627-8.627 13.472-20.33 13.472-32.528zM926 447.997c0-81.878-24.282-161.92-69.773-230.003-45.488-68.080-110.147-121.146-185.795-152.48s-158.89-39.533-239.2-23.558c-80.307 15.974-154.075 55.405-211.974 113.302s-97.329 131.667-113.303 211.974c-15.974 80.307-7.776 163.549 23.559 239.2 31.335 75.648 84.398 140.306 152.48 185.796s148.124 69.771 230.006 69.772c109.763-0.116 214.998-43.771 292.614-121.387s121.27-182.85 121.386-292.617z" />
<glyph unicode="&#xe903;" glyph-name="select-right" d="M406.641 790.665l320-320c2.975-2.972 5.335-6.501 6.945-10.386s2.44-8.049 2.44-12.253c0-4.206-0.829-8.37-2.44-12.255s-3.971-7.414-6.945-10.386l-320-320c-4.476-4.48-10.18-7.532-16.39-8.769-6.211-1.236-12.649-0.603-18.5 1.821s-10.849 6.529-14.365 11.796-5.39 11.459-5.385 17.792v640c-0.005 6.332 1.869 12.524 5.385 17.791s8.516 9.372 14.365 11.796c5.851 2.424 12.289 3.058 18.5 1.821s11.914-4.289 16.39-8.769z" />
<glyph unicode="&#xe904;" glyph-name="think" horiz-adv-x="992" d="M496 941.332c-272.023 0-493.332-221.309-493.332-493.332 0-272.026 221.309-493.334 493.332-493.334 272.026 0 493.334 221.309 493.334 493.334 0 272.023-221.309 493.332-493.334 493.332zM531.027 215.638c-18.746-18.253-51.306-18.253-70.051 0-8.931 9.373-14.307 22.202-14.307 35.027s5.376 25.654 14.307 35.027c9.373 8.88 22.198 14.307 35.024 14.307 12.829 0 25.654-5.427 35.027-14.307 8.88-9.373 14.307-22.202 14.307-35.027s-5.427-25.654-14.307-35.027zM545.334 398.666c0-27.232-22.051-49.334-49.334-49.334-27.28 0-49.331 22.102-49.331 49.334v246.667c0 27.232 22.051 49.333 49.331 49.333 27.283 0 49.334-22.101 49.334-49.333v-246.667z" />
<glyph unicode="&#xe905;" glyph-name="clockwise2" d="M128 576v192c-0.005 6.333 1.869 12.524 5.385 17.791s8.515 9.372 14.366 11.796c5.85 2.424 12.288 3.058 18.499 1.821s11.915-4.288 16.39-8.769l64.24-64.28c80.6 69.24 171.68 105.64 265.12 105.64 171.277 0 274.317-101.080 278.637-105.36 6.016-5.994 9.395-14.13 9.408-22.618s-3.354-16.632-9.344-22.643c-5.997-6.010-14.131-9.392-22.618-9.404s-16.634 3.35-22.643 9.344c-1.44 1.4-90.080 86.68-233.44 86.68-92.68 0-167.68-43.4-219.68-87.040l82.32-82.32c4.481-4.476 7.532-10.179 8.769-16.39s0.604-12.648-1.821-18.499c-2.424-5.851-6.529-10.85-11.796-14.366s-11.459-5.39-17.791-5.385h-192c-8.487 0-16.627 3.372-22.627 9.373s-9.373 14.14-9.373 22.627zM642.438 332.24c-2.426-5.846-3.061-12.278-1.83-18.493 1.235-6.208 4.275-11.91 8.749-16.39l82.323-82.317c-52-43.642-127-87.040-219.68-87.040-143.8 0-232.52 85.76-233.44 86.72-6.015 5.997-14.165 9.35-22.657 9.338s-16.629-3.405-22.623-9.421c-5.994-6.010-9.353-14.163-9.338-22.656 0.015-8.486 3.402-16.627 9.418-22.618 4.32-4.282 107.36-105.363 278.64-105.363 93.44 0 184.518 36.403 265.12 105.638l64.237-64.275c4.48-4.486 10.182-7.533 16.39-8.774 6.214-1.235 12.653-0.602 18.502 1.824s10.848 6.528 14.368 11.795c3.514 5.267 5.389 11.462 5.382 17.792v192c0 8.487-3.373 16.627-9.37 22.627-6.003 6.001-14.144 9.373-22.63 9.373h-192c-6.33-0.001-12.518-1.879-17.779-5.396s-9.357-8.516-11.782-14.364z" />
<glyph unicode="&#xe906;" glyph-name="gmail" d="M663.808 405.5l-85.76-86.051c-34.778-34.899-95.97-35.654-131.5 0l-85.766 86.051-308.032-309.033c11.466-5.299 24.108-8.467 37.548-8.467h843.999c13.44 0 26.080 3.162 37.542 8.467l-308.032 309.033zM934.253 808h-844.003c-13.44 0-26.083-3.164-37.544-8.466l329.154-330.246c0.022-0.022 0.048-0.026 0.070-0.048 0.013-0.014 0.022-0.032 0.026-0.052l107.026-107.38c11.368-11.368 35.172-11.368 46.54 0l107.006 107.362c0 0 0.026 0.048 0.045 0.070 0 0 0.051 0.026 0.070 0.048l329.146 330.248c-11.462 5.304-24.096 8.464-37.536 8.464zM9.822 757.576c-5.932-11.996-9.572-25.313-9.572-39.576v-540.003c0-14.259 3.636-27.578 9.57-39.571l308.566 309.564-308.564 309.587zM1014.675 757.58l-308.557-309.59 308.557-309.571c5.933 11.994 9.574 25.312 9.574 39.578v540.003c0 14.268-3.642 27.584-9.574 39.58z" />
<glyph unicode="&#xe907;" glyph-name="discord" d="M266.693 267.462c190.7-74.419 352.986-88.915 536.891 26.925-1.35-2.022-37.728-55.917-133.389-83.539 20.211-27.616 47.827-59.283 47.827-59.283 61.312 0 121.267 17.517 173.139 51.2 40.422 26.95 63.328 73.434 58.611 121.938-8.083 82.864-27.622 163.706-57.939 241.178-38.4 101.052-130.694 171.116-237.811 181.222-9.427 0.675-16.165 0.675-20.207 0.675l-10.778-10.778c123.286-35.032 184.591-89.6 185.935-91.622-189.306 95.664-412.968 97.010-603.621 4.042 0 0 60.632 59.958 194.694 91.622l-8.084 8.084c-14.148 0-27.622-1.348-41.768-3.368-99.032-16.842-181.894-84.884-217.6-178.526-30.99-80.842-51.2-165.725-58.61-251.96-4.042-45.805 17.516-90.944 55.242-117.222 49.852-33.005 109.136-50.522 169.094-50.522 0 0 24.252 31.661 48.506 59.955-90.948 26.95-128 80.845-128.674 82.867l17.116-8.742c10.233-5.235 20.721-9.958 31.426-14.144zM372.426 326.051c-43.79 1.348-78.148 38.4-76.8 82.864 1.348 41.768 35.032 75.452 76.8 76.8 43.79-1.348 78.148-38.4 76.8-82.864-2.022-41.77-35.032-75.454-76.8-76.8zM647.29 326.051c-43.792 1.348-78.15 38.4-76.803 82.864 1.348 41.768 35.032 75.452 76.803 76.8 43.789-1.348 78.144-38.4 76.8-82.864-1.35-41.77-35.034-75.454-76.8-76.8z" />
<glyph unicode="&#xe908;" glyph-name="tw" d="M1024.378 765.504c-38.080-16.704-78.656-27.776-120.96-33.152 43.52 25.984 76.736 66.816 92.352 116.032-40.576-24.192-85.376-41.28-133.12-50.816-38.528 41.024-93.44 66.432-153.344 66.432-116.227 0-209.795-94.336-209.795-209.984 0-16.64 1.408-32.64 4.864-47.872-174.528 8.512-328.96 92.16-432.704 219.584-18.112-31.424-28.736-67.392-28.736-106.112 0-72.704 37.44-137.152 93.248-174.464-33.728 0.64-66.816 10.432-94.848 25.856v-2.304c0-102.016 72.768-186.752 168.192-206.272-17.088-4.672-35.712-6.912-55.040-6.912-13.44 0-27.008 0.768-39.744 3.584 27.2-83.136 104.384-144.256 196.16-146.24-71.424-55.872-162.112-89.536-260.288-89.536-17.216 0-33.728 0.768-50.24 2.88 92.992-59.968 203.2-94.208 322.048-94.208 386.307 0 597.507 320 597.507 597.376 0 9.28-0.32 18.24-0.768 27.136 41.664 29.568 76.672 66.496 105.216 108.992z" />
<glyph unicode="&#xe909;" glyph-name="fb" d="M591.168-64v467.060h156.71l23.514 182.076h-180.224v116.228c0 52.699 14.574 88.612 90.227 88.612l96.339 0.040v162.855c-16.659 2.165-73.85 7.129-140.408 7.129-138.988 0-234.141-84.836-234.141-240.603v-134.261h-157.185v-182.076h157.185v-467.060h187.983z" />
<glyph unicode="&#xe90a;" glyph-name="clock" d="M512.251 857.594c-225.849 0-409.6-183.751-409.6-409.6s183.751-409.603 409.6-409.603c225.849 0 409.597 183.753 409.597 409.603s-183.747 409.6-409.597 409.6zM512.251 89.591c-197.625 0-358.4 160.777-358.4 358.403s160.775 358.399 358.4 358.399c197.625 0 358.397-160.774 358.397-358.399s-160.771-358.403-358.397-358.403zM537.851 704h-51.2v-266.599l161.1-161.1 36.2 36.2-146.1 146.1v245.399z" />
<glyph unicode="&#xe90b;" glyph-name="key" horiz-adv-x="512" d="M420.111 713.063c0 90.488-73.618 164.106-164.104 164.106-29.614 0-58.644-7.98-83.954-23.076-80.625-58.665-61.162-75.371-62.339-76.951s16.227 16.659 15.744 14.749c-0.483-1.91-16.029-12.8-15.744-14.749s0.010 0 57.139 56.385c-62.45-61.636-58.718-55.208-57.139-56.385s16.386 0.483 18.296 0c-84.62-67.811-1.949-0.285 0 0s57.717 50.176 59.409 51.185c20.666 12.326 44.382 18.842 68.588 18.842 73.946 0 134.104-60.16 134.104-134.106s-60.158-134.105-134.104-134.105c-73.946 0-134.104 60.159-134.104 134.105 0 28.558 8.852 55.816 25.6 78.828 2.285 3.219 3.209 7.21 2.572 11.106s-2.785 7.384-5.978 9.708c-3.192 2.323-7.171 3.294-11.075 2.703s-7.417-2.698-9.777-5.862c-20.504-28.174-31.342-61.536-31.342-96.48 0-90.486 73.618-164.103 164.104-164.103s164.104 73.615 164.104 164.101zM221.304 663.369c0 8.286-6.714 15-15 15s-15-6.714-15-15c0-30.512 21.236-56.14 49.7-62.924v-3.344c0-8.286 6.714-15.001 15-15.001s15 6.715 15 15.001v3.344c28.464 6.786 49.7 32.414 49.7 62.924 0 30.512-21.236 56.14-49.7 62.924v67.716c11.632-5.61 19.7-17.486 19.7-31.242 0-8.286 6.714-15 15-15s15 6.714 15 15c0 30.512-21.236 56.14-49.7 62.924v3.338c0 8.286-6.714 15-15 15s-15-6.714-15-15v-3.338c-28.464-6.786-49.7-32.412-49.7-62.924s21.236-56.14 49.7-62.924v-67.716c-11.632 5.61-19.7 17.486-19.7 31.242zM271.003 694.609c11.632-5.608 19.7-17.486 19.7-31.24 0-13.756-8.066-25.632-19.7-31.242v62.482zM221.304 762.769c0 13.756 8.066 25.632 19.7 31.242v-62.482c-11.632 5.608-19.7 17.484-19.7 31.24zM502.945 713.064c0 136.16-110.779 246.936-246.938 246.936s-246.936-110.776-246.936-246.936c0-115.388 79.39-214.57 190.518-240.459v-480.19c0-31.108 25.308-56.415 56.418-56.415s56.418 25.307 56.418 56.419v42.986h76.117c8.283 0 14.998 6.715 14.998 14.998v82.834c0 8.287-6.715 15.002-14.998 15.002h-76.117v36.264h76.117c8.283 0 14.998 6.715 14.998 15.002v82.834c0 3.979-1.58 7.793-4.392 10.609-2.812 2.812-6.627 4.392-10.606 4.392h-76.117v175.269c111.127 25.885 190.52 125.067 190.52 240.455zM297.426 267.341h76.115v-52.838h-76.115c-1.97 0.004-3.921-0.388-5.741-1.141s-3.474-1.858-4.867-3.251c-1.393-1.393-2.498-3.046-3.252-4.864-0.754-1.821-1.142-3.771-1.141-5.742v-66.267c0-8.283 6.714-14.998 15-14.998h76.115v-52.835h-76.115c-1.97 0-3.921-0.388-5.741-1.141s-3.474-1.858-4.867-3.251c-1.393-1.393-2.498-3.046-3.252-4.868s-1.142-3.771-1.141-5.742v-57.984c0-14.566-11.852-26.419-26.418-26.419s-26.418 11.853-26.418 26.419v492.405c0 3.515-1.236 6.919-3.491 9.618s-5.387 4.517-8.847 5.142c-103.244 18.615-178.18 108.394-178.18 213.48 0 119.62 97.316 216.936 216.936 216.936s216.934-97.316 216.934-216.936c0-105.086-74.935-194.869-178.178-213.48-3.461-0.625-6.592-2.443-8.847-5.142s-3.491-6.104-3.491-9.618v-202.485c0-8.283 6.714-14.998 15-14.998z" />
<glyph unicode="&#xe90c;" glyph-name="funnel" d="M922.399 761.879c-4.925 11.38-13.087 21.060-23.47 27.838s-22.528 10.353-34.929 10.282h-704.001c-12.387-0.025-24.5-3.643-34.871-10.416s-18.553-16.411-23.554-27.743c-5.001-11.332-6.606-23.873-4.621-36.099s7.477-23.614 15.806-32.782l0.32-0.36 270.92-289.281v-307.318c-0.003-11.587 3.138-22.953 9.087-32.891s14.485-18.074 24.696-23.542c10.211-5.468 21.714-8.064 33.285-7.511 11.57 0.558 22.772 4.239 32.412 10.665l127.997 85.356c8.776 5.847 15.969 13.768 20.946 23.066 4.977 9.293 7.578 19.676 7.578 30.218v221.957l271.278 289.641c8.417 9.126 13.962 20.529 15.939 32.785 1.981 12.257 0.302 24.825-4.818 36.135zM593.357 446.879c-11.116-11.781-17.321-27.361-17.357-43.561v-221.957l-128.001-85.361v307.318c0.037 16.261-6.145 31.913-17.28 43.761l-270.72 288.921h704.001l-270.643-289.12z" />
<glyph unicode="&#xe90d;" glyph-name="bluetooth" d="M847.892 446.449h-653.343c-79.282 0-143.981 64.543-143.981 143.98 0 79.439 64.543 143.981 143.981 143.981h150.807c6.052-30.099 32.737-52.751 64.543-52.751h36.15v-16.602c0-40.184 32.584-72.765 72.768-72.765h323.023c7.137 0 13.033 5.74 13.033 13.030v30.876h128.466c7.137 0 13.033 5.742 13.033 13.033v196.577c0 7.137-5.74 13.033-13.033 13.033h-128.466v30.72c0 7.137-5.74 13.033-13.033 13.033h-323.023c-9.556 0-19.018-1.882-27.848-5.539-8.827-3.657-16.85-9.017-23.606-15.774-6.758-6.757-12.116-14.779-15.775-23.607-3.656-8.828-5.54-18.29-5.54-27.846v-16.601h-36.15c-31.805 0-58.491-22.807-64.543-52.907h-150.807c-93.711 0-169.891-76.18-169.891-169.892s76.179-169.889 169.891-169.889h653.343c71.37 0 129.398-58.028 129.398-129.398s-58.028-129.395-129.398-129.395h-176.097c-3.023 14.899-11.098 28.301-22.856 37.939s-26.483 14.925-41.687 14.966h-36.15v16.602c0 40.184-32.581 72.768-72.765 72.768h-323.181c-7.137 0-13.033-5.742-13.033-13.033v-30.876h-128.465c-7.137 0-13.033-5.74-13.033-13.033v-197.043c0-7.135 5.741-13.033 13.033-13.033h128.465v-30.874c0-7.137 5.741-13.033 13.033-13.033h323.025c40.184 0 72.765 32.737 72.765 72.765v16.602h36.152c31.805 0 58.491 22.807 64.543 52.908h176.097c85.642 0 155.461 69.663 155.461 155.461s-69.663 155.617-155.308 155.617zM970.463 832.776v-170.977h-115.589v170.977h115.589zM471.962 829.828c0 25.755 20.943 46.856 46.856 46.856h310.147v-258.792h-310.147c-25.756 0-46.856 20.943-46.856 46.856v165.080zM409.9 787.161h36.15v-79.748h-36.15c-10.575 0-20.716 4.201-28.193 11.679s-11.681 17.62-11.681 28.195c0 10.575 4.204 20.717 11.681 28.195s17.618 11.679 28.193 11.679zM46.691 63.224v170.977h115.588v-170.977h-115.588zM545.037 66.171c0-25.754-20.946-46.856-46.856-46.856h-309.992v258.793h310.149c25.754 0 46.856-20.946 46.856-46.856v-165.082h-0.156zM607.252 108.838h-36.15v79.749h36.15c10.575 0 20.718-4.201 28.196-11.679s11.679-17.62 11.679-28.196c0-10.575-4.201-20.718-11.679-28.196s-17.62-11.679-28.196-11.679zM887.772 778.473h49.805c7.135 0 13.030 5.741 13.030 13.033s-5.74 13.033-13.030 13.033h-49.805c-7.137 0-13.033-5.741-13.033-13.033s5.896-13.033 13.033-13.033zM887.772 690.191h49.805c7.135 0 13.030 5.742 13.030 13.033 0 7.137-5.74 13.033-13.030 13.033h-49.805c-7.137 0-13.033-5.741-13.033-13.033 0-7.137 5.896-13.033 13.033-13.033zM523.476 735.496h38.787l47.478-59.423c2.483-3.103 6.205-4.81 10.084-4.81h64.389c7.137 0 13.033 5.742 13.033 13.033 0 7.137-5.742 13.033-13.033 13.033h-58.028l-30.564 38.322h181.993c7.137 0 13.033 5.741 13.033 13.033 0 7.137-5.742 13.033-13.033 13.033h-115.743l28.703 35.84h58.025c7.137 0 13.033 5.741 13.033 13.033s-5.74 13.033-13.033 13.033h-64.387c-3.878 0-7.757-1.862-10.086-4.81l-45.614-56.941h-105.037c-7.137 0-13.033-5.741-13.033-13.033 0-7.447 5.896-13.343 13.033-13.343zM129.392 117.527h-49.959c-7.137 0-13.033-5.74-13.033-13.033 0-7.291 5.741-13.033 13.033-13.033h49.804c7.137 0 13.033 5.742 13.033 13.033 0 7.293-5.741 13.033-12.878 13.033zM129.392 205.809h-49.959c-7.137 0-13.033-5.74-13.033-13.033 0-7.137 5.741-13.033 13.033-13.033h49.804c7.137 0 13.033 5.742 13.033 13.033 0 7.137-5.741 13.033-12.878 13.033zM493.688 160.504h-38.789l-47.475 59.423c-1.213 1.508-2.749 2.724-4.495 3.556s-3.656 1.262-5.591 1.254h-64.387c-7.137 0-13.033-5.742-13.033-13.033 0-7.293 5.74-13.033 13.033-13.033h58.025l30.72-38.323h-182.147c-7.137 0-13.033-5.74-13.033-13.033 0-7.291 5.741-13.030 13.033-13.030h115.743l-28.703-35.84h-58.028c-7.137 0-13.032-5.742-13.032-13.033 0-7.137 5.741-13.033 13.032-13.033h64.389c3.878 0 7.757 1.861 10.084 4.81l45.614 56.94h105.039c7.135 0 13.033 5.74 13.033 13.033 0 7.291-5.898 13.343-13.033 13.343z" />
<glyph unicode="&#xe90e;" glyph-name="star--2" horiz-adv-x="975" d="M218.279-19.88c-10.685 0-21.295 3.335-30.35 9.884-16.868 12.225-24.748 33.236-20.157 53.511l62.74 276.368-212.773 186.599c-15.64 13.654-21.615 35.276-15.194 55.061 6.421 19.748 23.892 33.729 44.577 35.641l281.525 25.559 111.305 260.475c8.207 19.137 26.898 31.496 47.665 31.496s39.456-12.359 47.663-31.452l111.309-260.52 281.478-25.559c20.729-1.868 38.2-15.893 44.622-35.641s0.483-41.407-15.155-55.061l-212.773-186.56 62.737-276.363c4.598-20.319-3.287-41.331-20.148-53.521-16.823-12.186-39.258-13.122-56.973-2.477l-242.759 145.072-242.759-145.15c-8.207-4.876-17.351-7.363-26.578-7.363zM487.616 195.126c9.229 0 18.362-2.477 26.578-7.348l229.108-137.031-59.216 260.852c-4.223 18.564 2.077 37.947 16.423 50.503l200.904 176.197-265.801 24.138c-19.139 1.749-35.596 13.78-43.076 31.414l-104.919 245.81-105.047-245.847c-7.396-17.515-23.855-29.547-42.948-31.295l-265.84-24.138 200.898-176.196c14.39-12.595 20.685-31.939 16.422-50.551l-59.168-260.837 229.105 136.982c8.207 4.871 17.352 7.348 26.578 7.348zM326.496 617.705c0 0 0-0.044-0.045-0.082l0.045 0.082zM648.655 617.824l0.044-0.082c0 0.045 0 0.045-0.044 0.082z" />
<glyph unicode="&#xe90f;" glyph-name="phrase" d="M955.732 874.667h-481.091c-15.972 0.007-31.434 5.604-43.709 15.821l-54.953 45.773c-18.406 15.328-41.6 23.728-65.554 23.74h-242.159c-18.106 0-35.469-7.192-48.272-19.995s-19.995-30.166-19.995-48.272v-785.066c0-18.107 7.192-35.471 19.995-48.274 12.803-12.8 30.166-19.994 48.272-19.994h207.906c30.195-32.317 66.708-58.081 107.277-75.697 40.568-17.618 84.324-26.706 128.55-26.706s87.982 9.088 128.55 26.706c40.568 17.615 77.082 43.379 107.277 75.697h207.905c18.107 0 35.471 7.194 48.274 19.994 12.8 12.803 19.994 30.167 19.994 48.274v699.732c0 18.105-7.194 35.469-19.994 48.272-12.803 12.803-30.167 19.995-48.274 19.995zM68.267 925.867h242.159c15.969-0.007 31.434-5.604 43.707-15.821l54.956-45.773c18.406-15.329 41.6-23.728 65.554-23.74h481.091c9.055 0 17.736-3.596 24.136-9.997 6.403-6.401 9.999-15.083 9.999-24.136v-94.822c-10.332 6.143-22.116 9.418-34.135 9.489h-17.065v17.066c0 18.106-7.194 35.469-19.996 48.272s-30.167 19.995-48.271 19.995h-716.8c-18.105 0-35.469-7.192-48.272-19.995s-19.995-30.166-19.995-48.272v-17.066h-17.066c-12.019-0.071-23.802-3.346-34.134-9.489v180.156c0 9.053 3.596 17.735 9.998 24.136s15.083 9.998 24.136 9.998zM904.532 721.067h-785.066v17.066c0 9.053 3.596 17.735 9.997 24.136s15.083 9.998 24.136 9.998h716.8c9.052 0 17.736-3.596 24.136-9.998 6.403-6.401 9.997-15.083 9.997-24.136v-17.066zM512-29.868c-57.382 0-113.477 17.016-161.19 48.896-47.711 31.882-84.897 77.194-106.858 130.209s-27.705 111.35-16.51 167.631c11.195 56.279 38.827 107.976 79.403 148.552s92.273 68.209 148.554 79.404c56.279 11.195 114.616 5.45 167.631-16.509s98.327-59.146 130.207-106.86c31.88-47.711 48.896-103.805 48.896-161.188-0.084-76.923-30.679-150.669-85.071-205.061s-128.138-84.987-205.061-85.074zM989.868 106.668c0-9.055-3.597-17.736-9.999-24.136-6.4-6.403-15.081-9.999-24.136-9.999h-179.83c34.616 48.486 55.209 105.569 59.515 164.987 4.308 59.42-7.839 118.876-35.105 171.845-27.264 52.972-68.595 97.405-119.455 128.428s-109.284 47.434-168.858 47.434c-59.574 0-117.998-16.412-168.858-47.434s-92.191-75.456-119.456-128.428c-27.265-52.969-39.411-112.425-35.105-171.845 4.306-59.418 24.899-116.5 59.516-164.987h-179.831c-9.053 0-17.735 3.597-24.136 9.999-6.401 6.4-9.998 15.081-9.998 24.136v546.132c0 9.052 3.596 17.736 9.998 24.136 6.401 6.403 15.083 9.997 24.136 9.997h887.466c9.055 0 17.736-3.594 24.136-9.997 6.403-6.4 9.999-15.084 9.999-24.136v-546.132zM499.932 179.953c3.2-3.2 7.542-4.997 12.065-4.997 4.526 0 8.868 1.797 12.068 4.997l68.265 68.265c3.11 3.22 4.831 7.532 4.792 12.006-0.041 4.475-1.836 8.755-5 11.919s-7.444 4.959-11.919 4.997c-4.475 0.038-8.786-1.682-12.004-4.79l-39.135-39.135v214.784c0 4.526-1.797 8.868-4.997 12.068-3.203 3.2-7.542 5-12.070 5-4.526 0-8.865-1.8-12.068-5-3.2-3.2-4.997-7.542-4.997-12.068v-214.784l-39.135 39.117c-3.218 3.11-7.529 4.831-12.004 4.79-4.475-0.038-8.755-1.833-11.919-4.997s-4.961-7.444-5-11.919c-0.038-4.475 1.682-8.786 4.79-12.004l68.268-68.25zM665.592 192c-4.526 0-8.868-1.797-12.068-5-3.203-3.2-5-7.542-5-12.068v-34.132c0-4.526-1.797-8.868-5-12.068-3.2-3.2-7.539-5-12.068-5h-238.932c-4.526 0-8.868 1.8-12.068 5s-5 7.542-5 12.068v34.132c0 4.526-1.797 8.868-4.997 12.068-3.2 3.203-7.542 5-12.068 5s-8.868-1.797-12.068-5c-3.203-3.2-5-7.542-5-12.068v-34.132c0-13.578 5.394-26.601 14.996-36.204s22.625-14.996 36.204-14.996h238.932c13.581 0 26.604 5.394 36.206 14.996 9.6 9.603 14.994 22.625 14.994 36.204v34.132c0 4.526-1.797 8.868-4.997 12.068-3.2 3.203-7.542 5-12.068 5z" />
<glyph unicode="&#xe910;" glyph-name="mpc" d="M960 336.003h-16v208c0 4.242-1.684 8.312-4.687 11.313-3 3-7.068 4.687-11.313 4.687h-48v143.999c0 4.243-1.684 8.313-4.687 11.314-3 3.001-7.068 4.686-11.313 4.686h-210.921c4.685 25.389 3.725 51.497-2.811 76.473-6.533 24.977-18.483 48.21-35 68.052s-37.197 35.808-60.572 46.765c-23.378 10.957-48.878 16.637-74.696 16.637s-51.318-5.68-74.696-16.637c-23.375-10.957-44.055-26.922-60.572-46.765s-28.467-43.075-35-68.052c-6.536-24.976-7.496-51.085-2.811-76.473h-194.921c-25.453-0.027-49.855-10.15-67.853-28.149-17.998-17.997-28.12-42.399-28.147-67.85v-544c0.027-25.454 10.15-49.856 28.147-67.853 17.998-17.999 42.4-28.122 67.853-28.147h816c4.244 0 8.312 1.684 11.313 4.685 3.003 3 4.687 7.071 4.687 11.315v208h16c12.726 0.015 24.924 5.079 33.923 14.077 8.998 8.996 14.060 21.197 14.077 33.923v32c-0.018 12.723-5.079 24.924-14.077 33.92-8.998 8.998-21.197 14.062-33.923 14.080zM480 896.002c28.48 0 56.323-8.445 80.003-24.269s42.138-38.313 53.036-64.625c10.9-26.312 13.752-55.266 8.195-83.199-5.555-27.934-19.272-53.59-39.409-73.73-20.14-20.14-45.798-33.853-73.731-39.411-27.935-5.555-56.888-2.703-83.2 8.195-26.312 10.9-48.801 29.356-64.625 53.038-15.823 23.68-24.269 51.521-24.269 80.002 0.044 38.178 15.229 74.779 42.225 101.775s63.598 42.181 101.775 42.225zM112 688.003h204.040c12.884-33.001 35.425-61.348 64.678-81.329 29.253-19.983 63.857-30.674 99.282-30.674s70.029 10.691 99.282 30.674c29.253 19.981 51.794 48.328 64.678 81.329h204.040v-128h-736c-16.974 0-33.253 6.74-45.255 18.744-12.002 12.001-18.745 28.28-18.745 45.256 0 16.973 6.743 33.252 18.745 45.253 12.002 12.004 28.281 18.747 45.255 18.747zM912 16.003h-800c-16.969 0.015-33.239 6.764-45.237 18.762s-18.747 28.268-18.763 45.238v472.52c17.57-15.803 40.369-24.538 64-24.52h800v-192h-48c-4.244 0-8.312-1.687-11.313-4.687-3.003-3-4.687-7.071-4.687-11.313v-96c0-4.244 1.684-8.315 4.687-11.315 3-3 7.068-4.685 11.313-4.685h48v-192zM976 256.003c-0.005-4.242-1.695-8.31-4.692-11.308-3-3-7.066-4.687-11.308-4.692h-80v64h80c4.242-0.008 8.307-1.695 11.308-4.695 2.998-2.998 4.687-7.066 4.692-11.305v-32zM640 160c-4.244 0-8.312-1.684-11.313-4.687-3.003-3-4.687-7.068-4.687-11.313v-80c0-4.244 1.684-8.312 4.687-11.313 3-3.003 7.068-4.687 11.313-4.687h224c4.244 0 8.312 1.684 11.313 4.687 3.003 3 4.687 7.068 4.687 11.313v80c0 4.244-1.684 8.312-4.687 11.313-3 3.003-7.068 4.687-11.313 4.687h-224zM848 80h-192v48h192v-48zM560 784c-0.018 12.725-5.079 24.924-14.077 33.922s-21.197 14.061-33.923 14.078h-0.141c-0.484 3.865-2.363 7.42-5.284 9.997-2.918 2.577-6.679 3.999-10.575 3.999s-7.657-1.422-10.575-3.999c-2.921-2.577-4.8-6.132-5.284-9.997h-16.141c0 4.243-1.684 8.313-4.687 11.314-3 3.001-7.068 4.686-11.313 4.686s-8.312-1.686-11.313-4.686c-3.003-3.001-4.687-7.070-4.687-11.314h-16c-4.244 0-8.312-1.686-11.313-4.686-3.003-3.001-4.687-7.070-4.687-11.314s1.684-8.313 4.687-11.314c3-3.001 7.068-4.686 11.313-4.686v-96c-4.244 0-8.312-1.684-11.313-4.687-3.003-3-4.687-7.068-4.687-11.313s1.684-8.312 4.687-11.313c3-3.003 7.068-4.687 11.313-4.687h16c0-4.244 1.684-8.312 4.687-11.313 3-3.003 7.068-4.687 11.313-4.687s8.312 1.684 11.313 4.687c3.003 3 4.687 7.068 4.687 11.313h16c0-4.244 1.684-8.312 4.687-11.313 3-3.003 7.068-4.687 11.313-4.687s8.312 1.684 11.313 4.687c3.003 3 4.687 7.068 4.687 11.313 9.27-0.005 18.34 2.673 26.117 7.713 7.78 5.041 13.932 12.227 17.71 20.69 3.781 8.462 5.030 17.839 3.594 26.996s-5.494 17.701-11.681 24.601c7.9 8.785 12.268 20.185 12.26 32zM512 704h-64v32h64c4.244 0 8.312-1.686 11.313-4.686 3.003-3.001 4.687-7.070 4.687-11.314s-1.684-8.313-4.687-11.314c-3-3.001-7.068-4.686-11.313-4.686zM512 768h-64v32h64c4.244 0 8.312-1.686 11.313-4.686 3.003-3.001 4.687-7.070 4.687-11.314s-1.684-8.313-4.687-11.314c-3-3.001-7.068-4.686-11.313-4.686z" />
<glyph unicode="&#xe911;" glyph-name="arr-right" horiz-adv-x="683" d="M625.757 487.956l-455.693 455.685c-10.54 10.548-24.609 16.359-39.611 16.359s-29.071-5.811-39.611-16.359l-33.559-33.55c-21.837-21.862-21.837-57.393 0-79.222l382.657-382.656-383.081-383.078c-10.54-10.556-16.359-24.61-16.359-39.603 0-15.010 5.819-29.073 16.359-39.629l33.559-33.545c10.548-10.547 24.609-16.358 39.611-16.358s29.071 5.811 39.611 16.358l456.118 456.102c10.564 10.581 16.367 24.709 16.334 39.728 0.033 15.077-5.769 29.196-16.334 39.769z" />
<glyph unicode="&#xe912;" glyph-name="wallet-money" horiz-adv-x="964" d="M225.187 734.481l384.208 104.873-20.347 41.126c-13.312 26.732-45.78 37.771-72.512 24.459l-343.947-170.458h52.599zM728.672 836.294c-4.759 0-9.523-0.649-14.288-1.948l-365.914-99.894h449.249l-16.884 61.906c-6.493 24.134-28.353 39.936-52.164 39.936zM854.13 696.588h-799.909c-17.1 0-32.36-7.9-42.317-20.346-4.546-5.736-8.009-12.338-9.957-19.59-1.191-4.545-1.948-9.308-1.948-14.178v-602.936c0-29.871 24.243-54.109 54.114-54.109h799.908c29.871 0 54.115 24.239 54.115 54.109v150.98h-321.112c-50.759 0-91.994 41.231-91.994 91.991v120.35c0 24.892 9.956 47.511 26.083 64.070 14.286 14.72 33.442 24.677 54.871 27.166 3.571 0.431 7.251 0.649 10.931 0.649h321.22v147.73c0.108 29.871-24.136 54.114-54.007 54.114zM946.152 443.058c-5.409 4.979-11.794 8.767-18.938 11.256-5.524 1.838-11.366 2.921-17.534 2.921h-322.624c-29.872 0-54.114-24.242-54.114-54.114v-120.456c0-29.871 24.242-54.115 54.114-54.115h322.624c6.168 0 12.017 1.084 17.534 2.921 7.144 2.385 13.529 6.277 18.938 11.258 10.824 9.848 17.643 24.136 17.643 39.936v120.456c0 15.802-6.819 30.089-17.643 39.937zM700.043 332.125c0-14.932-12.119-27.058-27.058-27.058h-17.962c-14.938 0-27.058 12.125-27.058 27.058v17.968c0 8.656 4.006 16.341 10.391 21.211 4.65 3.571 10.391 5.843 16.667 5.843h17.962c14.938 0 27.058-12.121 27.058-27.055v-17.968z" />
<glyph unicode="&#xe913;" glyph-name="book" d="M931.315 12.48v912.753c0 27.782-27.718 34.767-34.81 34.767-7.098 0-699.338 0-699.338 0-104.401 0-104.48-96.612-104.48-96.612v-890.344c0-20.403 16.598-37.043 37.199-37.043h667.732c20.403 0 36.998 16.64 36.998 37.043l59.533 0.16c39.949-0.038 37.165 39.277 37.165 39.277zM657.997 651.565h-382.957v72.362h382.957v-72.362zM852.902 48.211c-14.24 0-18.285-0.064-18.285-0.064v776.511c0 20.563-16.595 37.16-36.998 37.16l-631.844 0.196c0 25.469 26.123 38.417 38.259 38.417 8.276 0 630.552 0 630.552 0 39.475 0 38.336-34.767 38.336-34.767l0.038-794.982c0-5.184 1.888-22.47-20.058-22.47z" />
<glyph unicode="&#xe914;" glyph-name="noti" d="M881.416 259.226c-21.858 37.652-54.351 144.187-54.351 283.333 0 83.563-33.193 163.704-92.282 222.792s-139.229 92.284-222.795 92.284c-83.562 0-163.704-33.196-222.792-92.284s-92.284-139.229-92.284-222.792c0-139.185-32.532-245.681-54.39-283.333-5.582-9.574-8.541-20.448-8.579-31.527-0.038-11.083 2.846-21.977 8.363-31.586s13.469-17.597 23.056-23.154c9.587-5.553 20.47-8.483 31.551-8.491h160.729c7.269-35.572 26.601-67.541 54.728-90.498 28.125-22.957 63.315-35.497 99.619-35.497s71.499 12.54 99.623 35.497c28.125 22.957 47.455 54.926 54.725 90.498h160.729c11.079 0.016 21.957 2.95 31.539 8.507 9.578 5.561 17.526 13.544 23.040 23.154 5.51 9.61 8.393 20.504 8.35 31.579-0.039 11.079-2.997 21.949-8.578 31.52zM511.988 101.451c-19.543 0.004-38.601 6.069-54.556 17.353s-28.018 27.238-34.532 45.663h178.176c-6.514-18.424-18.578-34.379-34.532-45.663s-35.013-17.349-54.556-17.353zM196.912 227.482c30.326 52.145 63.015 172.977 63.015 315.077 0 66.85 26.556 130.963 73.827 178.234s111.382 73.827 178.234 73.827c66.851 0 130.966-26.556 178.235-73.827s73.826-111.384 73.826-178.234c0-141.982 32.61-262.814 63.015-315.077h-630.153z" />
<glyph unicode="&#xe915;" glyph-name="bank2" d="M96 544.019h96v-256h-64c-8.487 0-16.626-3.37-22.628-9.373-6.001-6-9.372-14.141-9.372-22.627s3.372-16.624 9.372-22.627c6.001-6 14.14-9.373 22.628-9.373h768c8.486 0 16.627 3.373 22.627 9.373 6 6.003 9.373 14.141 9.373 22.627s-3.373 16.627-9.373 22.627c-6 6.003-14.141 9.373-22.627 9.373h-64v256h96c6.963 0.006 13.734 2.285 19.283 6.49 5.552 4.202 9.581 10.099 11.475 16.8 1.898 6.701 1.555 13.834-0.973 20.323-2.525 6.486-7.098 11.974-13.024 15.629l-416 255.999c-5.043 3.099-10.845 4.74-16.762 4.74s-11.718-1.641-16.762-4.74l-415.998-255.999c-5.927-3.654-10.5-9.142-13.027-15.629-2.526-6.49-2.868-13.622-0.972-20.323s5.924-12.598 11.475-16.8c5.551-4.205 12.321-6.483 19.284-6.49zM256 544.019h128v-256h-128v256zM576 544.019v-256h-128v256h128zM768 288.019h-128v256h128v-256zM512 794.46l302.96-186.441h-605.92l302.96 186.441zM992 128.019c0-8.486-3.373-16.624-9.373-22.627-6-6-14.141-9.373-22.627-9.373h-896c-8.487 0-16.626 3.373-22.628 9.373-6.001 6.003-9.372 14.141-9.372 22.627s3.372 16.627 9.372 22.627c6.001 6.003 14.14 9.373 22.628 9.373h896c8.486 0 16.627-3.37 22.627-9.373 6-6 9.373-14.141 9.373-22.627z" />
<glyph unicode="&#xe916;" glyph-name="history" d="M544 640v-173.882l144.48-86.678c7.277-4.371 12.522-11.456 14.576-19.693 2.054-8.234 0.755-16.95-3.616-24.227-4.371-7.28-11.453-12.522-19.69-14.576-8.237-2.058-16.954-0.755-24.23 3.616l-160 96c-4.736 2.845-8.653 6.867-11.373 11.674-2.72 4.81-4.15 10.24-4.147 15.766v192c0 8.486 3.373 16.625 9.373 22.626s14.141 9.372 22.627 9.372c8.486 0 16.627-3.371 22.627-9.372s9.373-14.14 9.373-22.626zM512 831.999c-50.48 0.126-100.483-9.761-147.117-29.089s-88.972-47.712-124.563-83.511c-29.080-29.44-54.92-57.76-80.32-87.399v71.999c0 8.487-3.372 16.626-9.372 22.628s-14.14 9.372-22.628 9.372c-8.487 0-16.626-3.371-22.628-9.372s-9.372-14.14-9.372-22.628v-159.999c0-8.49 3.372-16.627 9.372-22.627 6.001-6.003 14.14-9.373 22.628-9.373h160c8.487 0 16.626 3.37 22.628 9.373 6.001 6 9.372 14.138 9.372 22.627 0 8.486-3.372 16.624-9.372 22.627-6.001 6-14.14 9.373-22.628 9.373h-92c28.6 33.68 57.080 65.399 89.56 98.279 44.475 44.474 101.067 74.856 162.712 87.349 61.642 12.493 125.6 6.544 183.878-17.104 58.282-23.649 108.301-63.947 143.808-115.861 35.51-51.914 54.931-113.139 55.843-176.029 0.909-62.89-16.736-124.653-50.726-177.571-33.994-52.922-82.826-94.65-140.397-119.974-57.571-25.322-121.331-33.12-183.309-22.416-61.978 10.707-119.427 39.437-165.17 82.608-3.057 2.886-6.653 5.146-10.583 6.646-3.93 1.498-8.117 2.208-12.322 2.090s-8.345-1.066-12.184-2.784c-3.839-1.718-7.302-4.176-10.191-7.232-2.889-3.059-5.148-6.656-6.647-10.586s-2.21-8.115-2.091-12.32c0.119-4.205 1.065-8.346 2.784-12.186 1.719-3.837 4.177-7.302 7.234-10.189 45.578-43.011 100.99-74.214 161.4-90.886 60.41-16.669 123.981-18.301 185.168-4.752 61.187 13.546 118.128 41.866 165.853 82.48s84.784 92.294 107.946 150.525c23.158 58.23 31.715 121.245 24.922 183.546-6.797 62.298-28.733 121.987-63.901 173.858s-82.496 94.345-137.856 123.718c-55.357 29.373-117.062 44.751-179.731 44.791z" />
<glyph unicode="&#xe917;" glyph-name="left-btn" horiz-adv-x="683" d="M56.889 408.044l455.693-455.685c10.54-10.547 24.609-16.358 39.611-16.358s29.071 5.811 39.611 16.358l33.559 33.553c21.837 21.862 21.837 57.395 0 79.223l-382.657 382.653 383.081 383.081c10.54 10.548 16.359 24.609 16.359 39.603 0 15.010-5.82 29.071-16.359 39.627l-33.558 33.542c-10.548 10.548-24.609 16.359-39.612 16.359s-29.071-5.811-39.611-16.359l-456.117-456.101c-10.565-10.581-16.367-24.709-16.334-39.728-0.033-15.077 5.769-29.196 16.334-39.769z" />
<glyph unicode="&#xe918;" glyph-name="view" d="M987.411 460.15v-0.003c1.706-3.837 2.589-7.987 2.589-12.186 0-4.202-0.883-8.352-2.589-12.189v-0.003c-1.347-3.037-35.104-77.914-110.186-152.995-99.994-99.952-226.246-152.774-365.226-152.774s-265.234 52.822-365.226 152.774c-75.081 75.082-108.84 149.958-110.186 152.995l-0.001 0.003c-1.706 3.837-2.587 7.987-2.587 12.189 0 4.198 0.881 8.349 2.587 12.186h0.001l0.023 0.058c1.164 2.854 35.072 77.891 110.162 152.982 99.992 99.991 226.247 152.813 365.226 152.813s265.232-52.822 365.226-152.813c75.082-75.082 108.838-150 110.186-153.037zM190.869 323.581h0.002c89.407-88.605 197.471-133.581 321.128-133.581 258.899 0 385.050 203.082 413.962 257.056l0.512 0.954-0.518 0.95c-24.816 45.421-56.083 87.005-92.826 123.459h-0.003c-89.405 88.605-197.469 133.581-321.126 133.581s-231.722-44.976-321.128-133.581h-0.002c-36.677-36.464-67.876-78.051-92.626-123.462l-0.522-0.957 0.522-0.957c24.756-45.408 55.955-86.992 92.626-123.462zM406.442 605.981c31.245 20.877 67.978 32.019 105.555 32.019 50.378-0.051 98.675-20.086 134.294-55.709 35.622-35.619 55.658-83.917 55.709-134.294 0-37.578-11.146-74.31-32.022-105.555s-50.55-55.597-85.267-69.978c-34.72-14.381-72.922-18.144-109.779-10.813-36.854 7.331-70.71 25.427-97.283 52-26.57 26.57-44.666 60.426-51.997 97.283-7.332 36.854-3.568 75.056 10.813 109.776 14.378 34.717 38.733 64.39 69.978 85.27zM439.776 339.91c21.379-14.285 46.512-21.91 72.224-21.91 34.477 0 67.542 13.696 91.923 38.077 24.381 24.378 38.077 57.446 38.077 91.923 0 25.712-7.626 50.845-21.91 72.224s-34.586 38.042-58.342 47.882c-23.754 9.837-49.891 12.413-75.11 7.395-25.216-5.014-48.381-17.395-66.56-35.578-18.182-18.179-30.563-41.344-35.581-66.56-5.014-25.219-2.442-51.357 7.398-75.114 9.84-23.754 26.502-44.058 47.882-58.339z" />
<glyph unicode="&#xe919;" glyph-name="select-up" d="M170.748 341.226h0.001l320 320.001c2.787 2.789 6.096 5.002 9.738 6.512s7.546 2.287 11.488 2.287c3.942 0 7.846-0.777 11.488-2.287s6.95-3.723 9.738-6.512v-0.001l320-320c4.202-4.195 7.062-9.542 8.221-15.366 1.162-5.824 0.566-11.859-1.706-17.344s-6.122-10.17-11.059-13.466c-4.938-3.296-10.742-5.053-16.678-5.050h-640.004c-5.937-0.003-11.741 1.754-16.679 5.050s-8.787 7.981-11.059 13.466c-2.273 5.485-2.867 11.52-1.707 17.344s4.020 11.171 8.221 15.366z" />
<glyph unicode="&#xe91a;" glyph-name="select-down" d="M853.251 554.774v0l-320-320c-2.787-2.79-6.096-5.002-9.738-6.512s-7.546-2.288-11.488-2.288c-3.942 0-7.846 0.778-11.488 2.288s-6.95 3.722-9.738 6.512v0l-320.001 320c-4.2 4.195-7.061 9.542-8.221 15.366s-0.565 11.859 1.707 17.344c2.273 5.485 6.122 10.17 11.060 13.466s10.742 5.053 16.679 5.050h640.002c5.939 0.003 11.744-1.754 16.682-5.050s8.787-7.981 11.059-13.466c2.272-5.485 2.867-11.52 1.706-17.344-1.158-5.824-4.019-11.171-8.221-15.366z" />
<glyph unicode="&#xe91b;" glyph-name="way2" d="M458.333 65.728l-0.006 0.013-384.199 671.676c-6.255 10.988-9.002 23.625-7.871 36.218s6.084 24.539 14.196 34.236c8.112 9.698 18.996 16.683 31.191 20.020s25.119 2.866 37.039-1.35l0.020-0.007 364.459-124.108 0.317 0.108 361.891 124.005c11.885 4.164 24.755 4.611 36.899 1.282 12.141-3.329 22.986-10.277 31.082-19.919 8.099-9.642 13.069-21.522 14.25-34.058 1.184-12.534-1.482-25.131-7.632-36.115 0-0.002-0.003-0.004-0.003-0.005l-383.558-671.996c-5.395-9.587-13.242-17.568-22.736-23.123-9.498-5.552-20.301-8.48-31.302-8.48-10.998 0-21.802 2.928-31.299 8.48-9.494 5.555-17.344 13.536-22.736 23.123zM895.094 769.816l-0.362-0.18-352.742-121.060v-232.549c0-7.955-3.162-15.587-8.787-21.213s-13.258-8.787-21.213-8.787c-7.958 0-15.587 3.162-21.213 8.787-5.629 5.626-8.787 13.258-8.787 21.213v232.871l-352.986 120.649-2.751-2.511 386.297-675.037 1.738 3.040 386.707 677.73-5.901-2.951z" />
<glyph unicode="&#xe91c;" glyph-name="way" d="M565.667 830.273l0.006-0.012 384.198-671.678c6.256-10.986 9.002-23.622 7.872-36.218-1.133-12.592-6.086-24.538-14.198-34.237-8.112-9.696-18.995-16.682-31.19-20.019s-25.117-2.867-37.037 1.35l-0.022 0.006-364.458 124.109-362.209-124.115c-11.883-4.163-24.753-4.611-36.897-1.28-12.144 3.328-22.986 10.275-31.084 19.917-8.098 9.645-13.069 21.523-14.25 34.061-1.181 12.534 1.482 25.13 7.634 36.112 0.001 0.003 0.002 0.006 0.003 0.006l383.558 671.997c5.395 9.588 13.242 17.568 22.736 23.122 9.498 5.554 20.301 8.48 31.302 8.48 10.998 0 21.802-2.927 31.299-8.48 9.494-5.554 17.344-13.534 22.736-23.122zM128.905 126.186l0.361 0.179 352.744 121.059v232.55c0 7.955 3.162 15.587 8.787 21.213s13.258 8.787 21.213 8.787c7.958 0 15.587-3.162 21.213-8.787 5.629-5.626 8.787-13.258 8.787-21.213v-232.87l352.986-120.65 2.752 2.512-386.298 675.038-1.738-3.040-386.708-677.729 5.901 2.95z" />
<glyph unicode="&#xe91d;" glyph-name="wallet2" d="M224 668.8h640c16.123 0 31.59-6.406 42.993-17.808s17.807-26.867 17.807-42.992v-448c0-16.123-6.405-31.59-17.807-42.993s-26.87-17.807-42.993-17.807h-640c-24.612 0-48.216 9.779-65.619 27.182s-27.181 41.006-27.181 65.618v512c0 24.612 9.777 48.216 27.181 65.619s41.008 27.181 65.619 27.181h544c7.639 0 14.966-3.034 20.362-8.435 5.402-5.401 8.438-12.727 8.438-20.365s-3.036-14.964-8.438-20.365c-5.396-5.401-12.723-8.435-20.362-8.435h-544c-9.336 0-18.289-3.708-24.89-10.31s-10.31-15.555-10.31-24.89c0-9.336 3.708-18.289 10.31-24.89s15.555-10.31 24.89-10.31zM691.553 357.427c8.422-5.622 18.319-8.627 28.447-8.627 13.578 0 26.604 5.396 36.204 14.996s14.996 22.625 14.996 36.204c0 10.127-3.005 20.024-8.627 28.447-5.627 8.417-13.624 14.981-22.979 18.857-9.354 3.874-19.651 4.888-29.583 2.913s-19.057-6.85-26.214-14.013c-7.163-7.158-12.037-16.282-14.013-26.214s-0.963-20.229 2.913-29.583c3.876-9.354 10.44-17.352 18.857-22.979z" />
<glyph unicode="&#xe91e;" glyph-name="wallet" d="M864 156.8h3.2v454.4h-643.205c-10.536-0.015-20.996 1.776-30.926 5.296l-4.269 1.513v-426.010c0-9.334 3.708-18.289 10.31-24.888 6.602-6.605 15.555-10.312 24.89-10.312h640zM224 668.8h640c16.123 0 31.59-6.406 42.993-17.808s17.807-26.867 17.807-42.992v-448c0-16.123-6.405-31.59-17.807-42.993s-26.87-17.807-42.993-17.807h-640c-24.612 0-48.216 9.779-65.619 27.182s-27.181 41.006-27.181 65.618v512c0 24.612 9.777 48.216 27.181 65.619s41.008 27.181 65.619 27.181h544c7.639 0 14.966-3.034 20.362-8.435 5.402-5.401 8.438-12.727 8.438-20.365s-3.036-14.964-8.438-20.365c-5.396-5.401-12.723-8.435-20.362-8.435h-544c-9.336 0-18.289-3.708-24.89-10.31s-10.31-15.555-10.31-24.89c0-9.336 3.708-18.289 10.31-24.89s15.555-10.31 24.89-10.31zM675.2 400c0 8.863 2.627 17.521 7.552 24.888 4.92 7.368 11.919 13.112 20.106 16.502 8.182 3.389 17.193 4.275 25.882 2.55 8.689-1.731 16.671-5.996 22.938-12.262s10.532-14.249 12.262-22.938c1.725-8.689 0.84-17.7-2.55-25.882-3.389-8.187-9.134-15.186-16.502-20.106-7.368-4.925-16.026-7.552-24.888-7.552-11.884 0-23.276 4.721-31.677 13.123s-13.123 19.794-13.123 31.677z" />
<glyph unicode="&#xe91f;" glyph-name="earn2" d="M160 796.8h704c16.123 0 31.59-6.406 42.993-17.808s17.807-26.867 17.807-42.992v-576c0-16.123-6.405-31.59-17.807-42.993s-26.87-17.807-42.993-17.807h-704c-16.125 0-31.59 6.405-42.992 17.807s-17.808 26.87-17.808 42.993v576c0 16.125 6.406 31.59 17.808 42.992s26.867 17.808 42.992 17.808zM224 188.8h576c9.334 0 18.289 3.707 24.888 10.312 6.605 6.6 10.312 15.555 10.312 24.888s-3.707 18.289-10.312 24.888c-6.6 6.605-15.555 10.312-24.888 10.312h-540.8v14.234l156.799 156.8 71.096-71.137c0.001 0 0.001 0 0.001 0 3.269-3.272 7.151-5.868 11.424-7.639s8.854-2.683 13.479-2.683c4.623 0 9.206 0.911 13.481 2.683 4.27 1.772 8.151 4.367 11.423 7.639 0 0 0 0 0 0l195.896 195.937v-75.034c0-9.336 3.707-18.289 10.312-24.89 6.6-6.601 15.555-10.31 24.888-10.31s18.289 3.708 24.888 10.31c6.605 6.602 10.312 15.555 10.312 24.89v160c0 9.336-3.707 18.289-10.312 24.89-6.6 6.601-15.555 10.31-24.888 10.31h-160c-9.334 0-18.289-3.708-24.888-10.31-6.605-6.602-10.312-15.555-10.312-24.89s3.707-18.289 10.312-24.89c6.6-6.601 15.555-10.31 24.888-10.31h75.034l-171.034-171.034-71.096 71.135c-0.001 0-0.001 0.001-0.001 0.001-3.269 3.273-7.151 5.869-11.424 7.64s-8.854 2.683-13.479 2.683c-4.626 0-9.206-0.912-13.479-2.683s-8.156-4.368-11.425-7.641l-131.896-131.935v299.034c0 9.336-3.708 18.289-10.31 24.89s-15.555 10.31-24.89 10.31c-9.336 0-18.289-3.708-24.89-10.31s-10.31-15.555-10.31-24.89v-448c0-9.334 3.708-18.289 10.31-24.888 6.602-6.605 15.555-10.312 24.89-10.312z" />
<glyph unicode="&#xe920;" glyph-name="earn" d="M156.8 333.24v-7.726l206.824 206.864c2.675 2.678 5.851 4.802 9.348 6.251s7.244 2.195 11.028 2.195c3.785 0 7.533-0.746 11.028-2.195s6.673-3.573 9.348-6.251l107.624-107.664 218.486 218.486h-90.486c-7.639 0-14.966 3.034-20.362 8.435-5.402 5.401-8.438 12.727-8.438 20.365s3.036 14.964 8.438 20.365c5.396 5.401 12.723 8.435 20.362 8.435h160c7.639 0 14.966-3.034 20.362-8.435 5.402-5.401 8.438-12.727 8.438-20.365v-160c0-7.638-3.036-14.964-8.438-20.365-5.396-5.401-12.723-8.435-20.362-8.435s-14.966 3.034-20.362 8.435c-5.402 5.401-8.438 12.727-8.438 20.365v90.486l-238.822-238.864c-2.678-2.678-5.852-4.803-9.349-6.252s-7.245-2.196-11.028-2.196c-3.785 0-7.533 0.748-11.028 2.196s-6.673 3.574-9.348 6.252h-0.001l-107.623 107.663-227.201-227.2v-87.286h739.2c7.639 0 14.966-3.036 20.362-8.438 5.402-5.396 8.438-12.723 8.438-20.362s-3.036-14.966-8.438-20.362c-5.396-5.402-12.723-8.438-20.362-8.438h-768c-7.638 0-14.964 3.036-20.365 8.438-5.401 5.396-8.435 12.723-8.435 20.362v640c0 7.638 3.034 14.964 8.435 20.365s12.727 8.435 20.365 8.435c7.638 0 14.964-3.034 20.365-8.435s8.435-12.727 8.435-20.365v-434.76z" />
<glyph unicode="&#xe921;" glyph-name="convert2" d="M659.354 595.366l-2.263-2.262c29.814-29.833 58.030-61.22 84.536-94.029l2.708-3.355 2.427 3.567c42.132 61.96 68.485 117.926 80.44 162.388 5.98 22.225 8.397 41.699 7.316 57.675-1.080 15.944-5.673 28.731-14.065 37.119-8.387 8.389-21.176 12.974-37.12 14.041-15.974 1.070-35.451-1.361-57.672-7.354-44.462-11.989-100.429-38.368-162.386-80.503l-3.569-2.426 3.354-2.71c32.799-26.478 64.184-54.654 94.034-84.417l2.258 2.266zM659.354 595.366c-29.138 29.054-59.74 56.602-91.684 82.536-0.261-0.181-0.527-0.361-0.799-0.543l-1.797 2.647 2.012 2.49c0.251-0.205 0.507-0.41 0.758-0.614 122.23 82.432 220.017 102.655 250.353 72.324 30.331-30.331 10.225-128.121-72.207-250.35 0.205-0.253 0.41-0.506 0.614-0.759l-2.488-2.011-2.647 1.8c0.179 0.266 0.364 0.532 0.543 0.798-25.964 31.956-53.55 62.558-82.657 91.683zM781.87 449.862l-1.326-1.856 1.326-1.854c49.178-69.053 86.164-139.075 102.211-200.371 16.061-61.373 10.962-113.188-22.712-146.954-21.74-21.74-50.964-31.621-85.376-31.621-73.078 0-168.381 44.175-261.939 110.925l-1.853 1.326-1.859-1.321c-93.962-66.755-189.309-110.93-262.147-110.93-34.413 0-63.598 9.846-85.377 31.621-33.77 33.772-38.922 85.581-22.882 146.954 16.019 61.297 53.005 131.318 102.185 200.371l1.322 1.854-1.322 1.856c-49.181 69.052-86.167 139.072-102.185 200.368-16.040 61.373-10.889 113.183 22.882 146.953s85.579 38.922 146.953 22.882c61.296-16.019 131.316-53.005 200.368-102.185l1.856-1.322 1.854 1.322c69.053 49.181 139.075 86.167 200.371 102.185 61.373 16.040 113.183 10.889 146.954-22.882 33.766-33.77 38.917-85.579 22.881-146.953-16.020-61.296-53.007-131.316-102.185-200.368zM460.886 677.517l3.346 2.705-3.553 2.426c-88.024 60.126-164.16 88.158-212.405 88.158-19.556 0-35.085-4.639-44.744-14.338-8.389-8.389-12.973-21.177-14.040-37.121-1.070-15.975 1.361-35.45 7.354-57.674 11.989-44.461 38.368-100.427 80.503-162.386l2.427-3.569 2.71 3.359c26.464 32.805 54.64 64.19 84.411 94.026 29.842 29.752 61.215 57.928 93.99 84.414zM282.483 396.938l-2.71 3.354-2.425-3.569c-42.136-61.957-68.514-117.924-80.503-162.386-5.993-22.221-8.424-41.697-7.354-57.672 1.068-15.944 5.652-28.733 14.041-37.12 8.389-8.392 21.177-12.974 37.122-14.044 15.975-1.070 35.45 1.362 57.674 7.352 44.461 11.991 100.427 38.369 162.386 80.507l3.564 2.422-3.351 2.714c-32.746 26.486-64.092 54.661-93.909 84.413-29.813 29.834-58.031 61.22-84.534 94.029zM820.46 139.505l0.937 0.937v0.072c7.793 8.392 12.073 20.813 13.102 36.152 1.070 15.974-1.362 35.451-7.352 57.672-11.991 44.462-38.369 100.429-80.507 162.386l-2.427 3.574-2.708-3.364c-26.465-32.819-54.641-64.215-84.413-94.065-29.855-29.793-61.24-58.010-94.029-84.536l-3.348-2.708 3.564-2.422c61.957-42.138 117.924-68.495 162.386-80.461 22.226-5.98 41.702-8.397 57.677-7.316 15.944 1.085 28.728 5.683 37.12 14.080zM483.549 405.432c8.42-5.622 18.319-8.627 28.445-8.627 13.579 0 26.605 5.396 36.205 14.996s14.996 22.625 14.996 36.205c0 10.126-3.005 20.025-8.627 28.445-5.627 8.419-13.624 14.982-22.979 18.857-9.359 3.875-19.652 4.889-29.584 2.913s-19.055-6.852-26.215-14.012c-7.16-7.16-12.037-16.283-14.012-26.215s-0.962-20.225 2.913-29.584c3.875-9.354 10.438-17.352 18.857-22.979z" />
<glyph unicode="&#xe922;" glyph-name="convert" d="M781.87 449.862l-1.326-1.856 1.326-1.854c49.178-69.053 86.164-139.075 102.211-200.371 16.061-61.373 10.962-113.188-22.712-146.954-21.74-21.74-50.964-31.621-85.376-31.621-73.078 0-168.381 44.175-261.939 110.925l-1.853 1.326-1.859-1.321c-93.963-66.755-189.27-110.93-262.147-110.93-34.413 0-63.598 9.846-85.377 31.621-33.77 33.772-38.922 85.581-22.882 146.954 16.019 61.297 53.005 131.318 102.185 200.371l1.322 1.854-1.322 1.856c-49.181 69.052-86.167 139.072-102.185 200.368-16.040 61.373-10.889 113.183 22.882 146.953s85.579 38.922 146.953 22.882c61.296-16.019 131.316-53.005 200.368-102.185l1.856-1.322 1.854 1.322c69.053 49.181 139.075 86.167 200.371 102.185 61.373 16.040 113.183 10.889 146.954-22.882 33.766-33.77 38.917-85.579 22.881-146.953-16.020-61.296-53.007-131.316-102.185-200.368zM741.627 499.075l2.708-3.355 2.427 3.567c42.132 61.96 68.485 117.926 80.44 162.388 5.98 22.225 8.397 41.699 7.316 57.675-1.080 15.944-5.673 28.731-14.065 37.119-8.387 8.399-21.176 12.988-37.12 14.058-15.974 1.072-35.451-1.361-57.672-7.356-44.462-11.994-100.429-38.383-162.386-80.518l-3.569-2.427 3.359-2.71c32.804-26.465 64.189-54.642 94.029-84.414l-0.005 0.003c29.814-29.833 58.030-61.22 84.536-94.029zM707.666 446.024l1.567 1.982-95.119 102.12 2.268 2.258c-0.005 0.003-0.005 0.005-0.010 0.007-32.297 32.422-66.488 62.903-102.395 91.284l-1.986 1.572-1.986-1.575c-71.753-56.941-136.737-121.924-193.677-193.677l-1.575-1.986 1.572-1.986c28.382-35.907 58.865-70.098 91.288-102.4 32.302-32.425 66.494-62.904 102.398-91.29l1.984-1.567 1.982 1.567c35.907 28.385 70.098 58.865 102.4 91.29 32.425 32.302 62.904 66.493 91.29 102.4zM460.886 677.517l3.346 2.705-3.553 2.426c-88.024 60.126-164.16 88.158-212.405 88.158-19.556 0-35.085-4.639-44.744-14.338-8.389-8.389-12.973-21.177-14.040-37.121-1.070-15.975 1.361-35.45 7.354-57.674 11.989-44.461 38.368-100.427 80.503-162.386l2.427-3.569 2.71 3.359c26.464 32.805 54.64 64.19 84.411 94.026 29.842 29.752 61.215 57.928 93.99 84.414zM282.483 396.938l-2.71 3.354-2.425-3.569c-42.136-61.957-68.514-117.924-80.503-162.386-5.993-22.221-8.424-41.697-7.354-57.672 1.068-15.944 5.651-28.733 14.040-37.12 8.389-8.402 21.178-12.989 37.123-14.060 15.975-1.075 35.451 1.362 57.675 7.357 44.461 11.991 100.427 38.38 162.386 80.517l3.564 2.422-3.351 2.714c-32.746 26.486-64.092 54.661-93.909 84.413-29.813 29.834-58.031 61.22-84.534 94.029zM563.062 218.373l-3.348-2.708 258.483-73.861 2.258-2.258c0.005 0 0.005 0 0.005 0 8.387 8.387 12.969 21.176 14.039 37.12 1.070 15.974-1.362 35.451-7.352 57.672-11.991 44.462-38.369 100.429-80.507 162.386l-2.427 3.569-2.708-3.359c-26.465-32.804-54.641-64.189-84.408-94.024-29.855-29.793-61.24-58.010-94.034-84.536zM556.795 448.006c0-8.859-2.627-17.522-7.552-24.889-4.92-7.368-11.919-13.112-20.106-16.502s-17.192-4.275-25.883-2.55c-8.69 1.731-16.673 5.996-22.938 12.262s-10.532 14.249-12.261 22.938c-1.729 8.689-0.842 17.699 2.549 25.885s9.133 15.183 16.5 20.106c7.367 4.923 16.029 7.55 24.889 7.55 11.879 0 23.277-4.72 31.678-13.122s13.123-19.796 13.123-31.678z" />
<glyph unicode="&#xe923;" glyph-name="check" horiz-adv-x="1365" d="M479.275-49.695c-25.189 0-50.277 9.556-69.69 28.472l-284.43 278.755c-39.225 38.429-39.822 101.448-1.394 140.773 38.528 39.323 101.647 39.822 140.772 1.493l214.741-210.56 641.336 628.593c39.325 38.428 102.344 38.030 140.771-1.394 38.528-39.225 37.931-102.343-1.294-140.772l-711.125-696.888c-19.413-18.917-44.501-28.472-69.688-28.472z" />
<glyph unicode="&#xe924;" glyph-name="exchange2" d="M384 348.8c32.285-0.036 64.529 2.314 96.467 7.035l2.733 0.404v101.564l-3.614-0.471c-31.692-4.13-63.621-6.178-95.582-6.133h-0.009c-31.961-0.045-63.889 2.003-95.582 6.133l-3.614 0.471v-101.564l2.733-0.404c31.939-4.721 64.182-7.071 96.467-7.035zM384 348.8c0.001 0 0.003 0 0.004 0h-0.007c0.001 0 0.003 0 0.004 0zM480 454.16v-3.227c0.138 0.018 0.275 0.036 0.414 0.054l-0.414 3.173zM480 454.16h-3.2v-0.41c1.067 0.134 2.134 0.271 3.2 0.41zM288 454.16c1.066-0.139 2.133-0.275 3.2-0.41v0.41h-3.2zM288 454.16l-0.414-3.173c0.138-0.018 0.276-0.036 0.414-0.054v3.227zM732.8 601.72v-2.804l2.78-0.369c76.851-10.179 140.344-31.795 184.525-60.973 44.196-29.185 68.695-65.638 68.695-105.575v-160c0-48.358-36.495-91.515-98.975-122.757-62.362-31.181-149.842-50.043-249.825-50.043s-187.465 18.862-249.824 50.043c-62.481 31.242-98.976 74.399-98.976 122.757v24.965l-2.782 0.369c-75.184 9.897-138.684 31.355-183.29 60.544-44.63 29.204-69.927 65.833-69.927 106.122v160c0 48.36 36.495 91.514 98.976 122.758 62.359 31.182 149.839 50.042 249.824 50.042s187.464-18.86 249.825-50.042c62.479-31.243 98.975-74.397 98.975-122.758v-22.28zM223.139 369.439l4.061-1.137v100.215l-2.446 0.593c-51.362 12.452-94.68 30.956-126.904 53.782l-5.050 3.577v-62.468c0-18.371 13.496-36.603 35.949-52.721 22.601-16.225 54.978-30.838 94.39-41.841zM543.247 469.11l-2.447-0.593v-100.215l4.060 1.137c39.414 11.003 71.788 25.615 94.392 41.841 22.451 16.118 35.948 34.35 35.948 52.721v62.468l-5.048-3.577c-32.225-22.826-75.546-41.329-126.904-53.782zM479.139 177.439l4.061-1.137v100.582l-2.452 0.589c-16.96 4.070-33.687 9.062-50.109 14.94l-0.615 0.22-0.652-0.041c-14.826-0.876-29.922-1.393-45.371-1.393-10.786 0-21.383 0.276-31.879 0.676l-3.321 0.128v-20.004c0-18.371 13.496-36.603 35.949-52.721 22.601-16.225 54.978-30.838 94.39-41.841zM736.466 163.835l2.734 0.399v101.571l-3.615-0.471c-31.693-4.132-63.621-6.18-95.58-6.134h-0.005c-31.964-0.015-63.892 2.115-95.575 6.369l-3.625 0.492v-101.827l2.734-0.399c63.969-9.38 128.963-9.38 192.932 0zM796.8 180.521v-4.219l4.060 1.137c39.414 11.003 71.788 25.615 94.392 41.841 22.451 16.118 35.948 34.35 35.948 52.721v62.469l-5.048-3.579c-32.225-22.825-75.546-41.329-126.904-53.78l-2.447-0.594v-95.995z" />
<glyph unicode="&#xe925;" glyph-name="exchange" d="M384 348.8c32.285-0.036 64.529 2.314 96.467 7.035l2.733 0.404v101.564l-3.614-0.471c-31.692-4.13-63.621-6.178-95.582-6.133h-0.009c-31.961-0.045-63.889 2.003-95.582 6.133l-3.614 0.471v-101.564l2.733-0.404c31.939-4.721 64.182-7.071 96.467-7.035zM384 348.8c0.001 0 0.003 0 0.004 0h-0.007c0.001 0 0.003 0 0.004 0zM732.8 601.72v-2.804l2.78-0.369c76.851-10.179 140.344-31.795 184.525-60.973 44.196-29.185 68.695-65.638 68.695-105.575v-160c0-48.358-36.495-91.515-98.975-122.757-62.362-31.181-149.842-50.043-249.825-50.043s-187.465 18.862-249.824 50.043c-62.481 31.242-98.976 74.399-98.976 122.757v24.965l-2.782 0.369c-75.184 9.897-138.684 31.355-183.29 60.544-44.63 29.204-69.927 65.833-69.927 106.122v160c0 48.36 36.495 91.514 98.976 122.758 62.359 31.182 149.839 50.042 249.824 50.042s187.464-18.86 249.825-50.042c62.479-31.243 98.975-74.397 98.975-122.758v-22.28zM594.586 324.485l0.886-6.2c14.664-0.963 29.532-1.485 44.529-1.485 82.77 0 155.197 14.838 207.043 36.413 25.912 10.788 46.817 23.311 61.302 36.623 14.438 13.266 22.856 27.668 22.856 42.163 0 10.737-4.992 21.763-13.952 32.391-8.97 10.644-22.093 21.109-38.84 30.817-33.495 19.421-81.905 36.053-141.937 44.997l-3.671 0.547v-76.752c0-57.856-52.229-108.18-138.214-139.515zM675.2 520.28v6.188l-5.048-3.577c-32.225-22.826-75.546-41.329-126.904-53.782l-2.447-0.593v-100.215l4.060 1.137c39.414 11.003 71.788 25.615 94.392 41.841 22.451 16.118 35.948 34.35 35.948 52.721v56.28zM97.85 522.891l-5.050 3.577v-62.468c0-18.371 13.496-36.603 35.949-52.721 22.601-16.225 54.978-30.838 94.39-41.841l4.061-1.137v100.215l-2.446 0.593c-51.362 12.452-94.68 30.956-126.904 53.782zM352.121 291.876l-3.321 0.128v-20.004c0-18.371 13.496-36.603 35.949-52.721 22.601-16.225 54.978-30.838 94.39-41.841l4.061-1.137v100.582l-2.452 0.589c-16.96 4.070-33.687 9.062-50.109 14.94l-0.615 0.22-0.652-0.041c-14.826-0.876-29.922-1.393-45.371-1.393-10.786 0-21.383 0.276-31.879 0.676zM540.8 166.999v-2.765l2.734-0.399c63.969-9.38 128.963-9.38 192.932 0l2.734 0.399v101.571l-3.615-0.471c-31.693-4.132-63.621-6.18-95.58-6.134h-0.005c-31.964-0.015-63.892 2.115-95.575 6.369l-3.625 0.492v-99.062zM796.8 180.521v-4.219l4.060 1.137c39.414 11.003 71.788 25.615 94.392 41.841 22.451 16.118 35.948 34.35 35.948 52.721v62.469l-5.048-3.579c-32.225-22.825-75.546-41.329-126.904-53.78l-2.447-0.594v-95.995zM675.2 624c0 14.495-8.417 28.896-22.856 42.165-14.484 13.312-35.389 25.836-61.302 36.62-51.845 21.577-124.272 36.415-207.043 36.415s-155.199-14.838-207.045-36.415c-25.912-10.784-46.817-23.308-61.301-36.62-14.437-13.268-22.854-27.67-22.854-42.165s8.417-28.896 22.854-42.165c14.484-13.312 35.389-25.836 61.301-36.62 51.846-21.577 124.274-36.415 207.045-36.415s155.197 14.838 207.043 36.415c25.912 10.784 46.817 23.308 61.302 36.62 14.438 13.268 22.856 27.67 22.856 42.165z" />
<glyph unicode="&#xe926;" glyph-name="home2" d="M896 497.798v-369.802c0-16.973-6.742-33.251-18.746-45.254s-28.282-18.746-45.254-18.746h-160c-16.973 0-33.251 6.742-45.254 18.746s-18.746 28.282-18.746 45.254v160c0 8.486-3.373 16.627-9.373 22.627-6 6.003-14.141 9.373-22.627 9.373h-128c-8.486 0-16.627-3.37-22.627-9.373-6-6-9.373-14.141-9.373-22.627v-160c0-16.973-6.742-33.251-18.746-45.254s-28.282-18.746-45.254-18.746h-160c-16.974 0-33.252 6.742-45.255 18.746s-18.745 28.282-18.745 45.254v369.802c-0.001 8.858 1.836 17.619 5.396 25.728 3.56 8.112 8.764 15.395 15.284 21.392l320.44 302.359c11.782 10.715 27.136 16.652 43.059 16.652 15.926 0 31.28-5.937 43.059-16.652 0.138-0.156 0.285-0.304 0.442-0.44l320-301.919c6.454-6.029 11.594-13.325 15.088-21.434 3.498-8.112 5.28-16.858 5.232-25.686z" />
<glyph unicode="&#xe927;" glyph-name="home" d="M869.882 539.040l-320.362 302.321c-10.282 9.416-23.718 14.639-37.661 14.639-13.939 0-27.376-5.223-37.658-14.639l-0.362-0.32-319.999-302.001c-5.66-5.27-10.167-11.654-13.238-18.752s-4.637-14.755-4.602-22.486v-369.802c0-14.851 5.9-29.094 16.402-39.597s24.746-16.403 39.598-16.403h191.999c14.851 0 29.098 5.901 39.6 16.403 10.499 10.502 16.4 24.746 16.4 39.597v192c0 2.122 0.845 4.157 2.342 5.658 1.501 1.501 3.536 2.342 5.658 2.342h128c2.122 0 4.157-0.842 5.658-2.342s2.342-3.536 2.342-5.658v-192c0-14.851 5.901-29.094 16.403-39.597s24.746-16.403 39.597-16.403h192c14.851 0 29.098 5.901 39.6 16.403 10.499 10.502 16.4 24.746 16.4 39.597v369.802c0 7.754-1.61 15.421-4.73 22.522-3.12 7.098-7.68 13.472-13.389 18.717zM840 128c0-2.122-0.842-4.157-2.342-5.658-1.501-1.498-3.536-2.342-5.658-2.342h-192c-2.122 0-4.157 0.845-5.658 2.342-1.498 1.501-2.342 3.536-2.342 5.658v192c0 14.851-5.901 29.098-16.4 39.6-10.502 10.499-24.749 16.4-39.6 16.4h-128c-14.851 0-29.094-5.901-39.597-16.4-10.502-10.502-16.403-24.749-16.403-39.6v-192c0-2.122-0.842-4.157-2.342-5.658-1.501-1.498-3.536-2.342-5.658-2.342h-191.999c-2.122 0-4.156 0.845-5.657 2.342-1.5 1.501-2.343 3.536-2.343 5.658v369.802c-0.003 1.114 0.228 2.214 0.675 3.232 0.448 1.021 1.103 1.936 1.925 2.688l0.36 0.32 319.759 301.919c1.459 1.272 3.328 1.972 5.261 1.972s3.802-0.7 5.261-1.972l320.118-302.281c0.829-0.749 1.491-1.661 1.946-2.682 0.458-1.018 0.691-2.122 0.694-3.238v-369.76zM875.322 544.925l-320 301.921c-0.157 0.137-0.304 0.284-0.442 0.44-11.782 10.715-27.136 16.652-43.059 16.652-15.926 0-31.28-5.937-43.059-16.652l-0.442-0.44-319.64-301.921c-6.52-5.994-11.725-13.28-15.284-21.389-3.56-8.112-5.397-16.874-5.396-25.731v-369.798c0-16.976 6.743-33.254 18.745-45.254 12.002-12.003 28.281-18.746 45.255-18.746h192c16.973 0 33.251 6.742 45.254 18.746 12.003 12 18.746 28.278 18.746 45.254v192h128v-192c0-16.976 6.742-33.254 18.746-45.254 12.003-12.003 28.282-18.746 45.254-18.746h192c16.973 0 33.251 6.742 45.254 18.746 12.003 12 18.746 28.278 18.746 45.254v369.798c0 8.858-1.837 17.619-5.395 25.731-3.562 8.109-8.765 15.395-15.283 21.389zM832 128.006h-192v192c0 16.973-6.742 33.251-18.746 45.254s-28.282 18.746-45.254 18.746h-128c-16.973 0-33.251-6.742-45.254-18.746s-18.746-28.282-18.746-45.254v-192h-192v369.798l0.44 0.4 319.56 301.801 320.038-302.121-0.038-369.878z" />
<glyph unicode="&#xe928;" glyph-name="tag" d="M477.526 883.536v0c10.189 6.798 22.163 10.425 34.41 10.425 12.25 0 24.224-3.628 34.413-10.425v0l256-170.64c0 0 0 0 0-0.001 8.486-5.663 15.446-13.332 20.259-22.329s7.331-19.043 7.328-29.246v-629.32c0-5.472-1.494-10.842-4.33-15.526-2.832-4.682-6.89-8.502-11.738-11.043s-10.298-3.709-15.76-3.376c-5.466 0.336-10.733 2.157-15.235 5.27v0l-270.938 187.104-270.936-187.104c-4.502-3.114-9.769-4.934-15.232-5.27-5.463-0.333-10.913 0.835-15.761 3.376s-8.907 6.362-11.74 11.043c-2.833 4.685-4.33 10.054-4.33 15.526v629.32c0 10.204 2.518 20.249 7.331 29.246s11.771 16.667 20.259 22.329c0 0 0.001 0 0.001 0.001l255.999 170.64zM769.936 661.2v1.070l-258 172.134-1.107-0.74-256.731-171.274v-573.203l223.582 154.515c10.173 6.768 22.118 10.378 34.336 10.378 12.221 0 24.166-3.61 34.339-10.378l0.333-0.266-0.003-0.003 0.115-0.080 223.136-154.166v572.012z" />
<glyph unicode="&#xe929;" glyph-name="user" d="M921.974 111.014v0l0.026-0.045c2.096-3.414 3.485-7.213 4.086-11.174s0.406-8.003-0.579-11.885c-0.986-3.885-2.739-7.53-5.155-10.726-2.416-3.194-5.45-5.872-8.918-7.875s-7.306-3.293-11.28-3.789c-3.974-0.499-8.010-0.195-11.866 0.893-3.856 1.085-7.456 2.934-10.586 5.434-3.13 2.502-5.728 5.603-7.638 9.123v0l-0.026 0.048c-75.709 130.845-209.562 208.998-358.013 208.998-148.448 0-282.301-78.154-358.010-208.998h-0.001l-0.026-0.048c-1.912-3.52-4.509-6.621-7.639-9.123-3.13-2.499-6.729-4.349-10.585-5.434-3.856-1.088-7.891-1.392-11.866-0.893-3.975 0.496-7.81 1.786-11.279 3.789s-6.502 4.682-8.919 7.875c-2.417 3.197-4.17 6.842-5.155 10.726-0.985 3.882-1.182 7.923-0.58 11.885s1.991 7.76 4.086 11.174v0l0.026 0.045c60.678 104.941 154.166 180.138 263.25 215.741l4.186 1.366-3.786 2.253c-53.815 32.038-95.628 80.854-119.015 138.957s-27.055 122.272-10.441 182.66c16.614 60.388 52.592 113.652 102.406 151.613 49.818 37.961 110.717 58.521 173.347 58.521 62.634 0 123.533-20.559 173.347-58.521 49.818-37.961 85.792-91.226 102.406-151.613s12.947-124.558-10.438-182.66c-23.389-58.102-65.2-106.918-119.018-138.957l-3.782-2.253 4.186-1.366c109.082-35.645 202.57-110.838 263.248-215.741zM286.027 576.016v-0.003c0.064-59.917 23.895-117.363 66.265-159.731 42.368-42.371 99.814-66.202 159.734-66.266v0c44.701 0 88.394 13.254 125.558 38.090 37.168 24.832 66.134 60.128 83.238 101.424 17.107 41.296 21.581 86.736 12.861 130.576s-30.243 84.11-61.85 115.717c-31.606 31.607-71.878 53.131-115.715 61.851-43.84 8.72-89.283 4.245-130.579-12.861s-76.592-46.072-101.424-83.238c-24.834-37.165-38.089-80.861-38.089-125.559z" />
<glyph unicode="&#xe92a;" glyph-name="cancel" d="M608.527 447.99l293.053 293.064c26.691 26.692 26.691 69.836 0 96.527s-69.832 26.692-96.522 0l-293.059-293.063-293.057 293.063c-26.691 26.692-69.834 26.692-96.525 0s-26.691-69.835 0-96.527l293.057-293.064-293.057-293.059c-26.691-26.696-26.691-69.837 0-96.527 13.311-13.312 30.787-20.004 48.263-20.004s34.951 6.692 48.263 20.004l293.057 293.059 293.059-293.059c13.312-13.312 30.787-20.004 48.261-20.004s34.949 6.692 48.261 20.004c26.691 26.691 26.691 69.832 0 96.527l-293.053 293.059z" />
<glyph unicode="&#xe92b;" glyph-name="swap" d="M397.238 290h-4.829l44.816-44.774c0 0 0 0 0 0 2.787-2.787 4.998-6.096 6.509-9.738 1.507-3.642 2.285-7.546 2.285-11.488s-0.778-7.846-2.285-11.488c-1.51-3.642-3.722-6.95-6.509-9.738s-6.096-4.998-9.738-6.506c-3.642-1.51-7.546-2.288-11.488-2.288s-7.846 0.778-11.488 2.288c-3.642 1.507-6.95 3.718-9.738 6.506l-96.001 96c-2.789 2.787-5.002 6.096-6.512 9.738s-2.287 7.546-2.287 11.488c0 3.942 0.777 7.846 2.287 11.488s3.722 6.95 6.512 9.738h0.001l96 96c5.629 5.629 13.264 8.794 21.226 8.794s15.597-3.165 21.226-8.794c5.629-5.629 8.794-13.264 8.794-21.226s-3.165-15.597-8.794-21.226c0 0 0 0 0 0l-44.816-44.774h441.59v420h-452v-34c0-7.956-3.162-15.587-8.787-21.213s-13.258-8.787-21.213-8.787c-7.955 0-15.587 3.161-21.213 8.787s-8.787 13.257-8.787 21.213v32c0 16.444 6.531 32.213 18.16 43.841 11.626 11.627 27.395 18.159 43.84 18.159h448c16.445 0 32.214-6.532 43.84-18.159 11.629-11.627 18.16-27.397 18.16-43.841v-416c0-16.445-6.531-32.214-18.16-43.84-11.626-11.629-27.395-18.16-43.84-18.16h-434.762zM640 126h2v34c0 7.955 3.162 15.587 8.787 21.213s13.258 8.787 21.213 8.787c7.955 0 15.587-3.162 21.213-8.787s8.787-13.258 8.787-21.213v-32c0-16.445-6.531-32.214-18.16-43.84-11.626-11.629-27.395-18.16-43.84-18.16h-448c-16.444 0-32.213 6.531-43.841 18.16-11.627 11.626-18.159 27.395-18.159 43.84v416c0 16.445 6.532 32.214 18.159 43.84 11.627 11.629 27.397 18.16 43.841 18.16h439.59l-44.816 44.774c0 0 0 0.001 0 0.001-5.629 5.629-8.794 13.264-8.794 21.225s3.165 15.596 8.794 21.226c5.629 5.629 13.264 8.792 21.226 8.792s15.597-3.163 21.226-8.792l96-96c2.79-2.787 5.002-6.096 6.512-9.738s2.288-7.546 2.288-11.488c0-3.942-0.778-7.846-2.288-11.488s-3.722-6.95-6.512-9.738v0l-96-96c-5.629-5.629-13.264-8.794-21.226-8.794s-15.597 3.165-21.226 8.794c-5.629 5.629-8.794 13.264-8.794 21.226s3.165 15.597 8.794 21.226c0 0 0 0 0 0l44.816 44.774h-441.59v-420h450z" />
<glyph unicode="&#xe92c;" glyph-name="star" d="M937.264 504.486h0.198c8.957 7.914 15.443 18.253 18.662 29.773 3.286 11.76 3.030 24.227-0.739 35.84-3.773 11.61-10.886 21.853-20.454 29.437-9.565 7.584-21.158 12.176-33.325 13.2h-0.006l-238.963 20.704-0.467 1.114-93.123 221.444c-4.694 11.255-12.618 20.869-22.765 27.632-10.15 6.762-22.074 10.371-34.269 10.371s-24.118-3.608-34.266-10.371c-10.15-6.763-18.070-16.377-22.768-27.632v-0.003l-93.309-222.555-1.203-0.106-237.846-20.598c-12.166-1.024-23.76-5.616-33.326-13.2s-16.682-17.827-20.452-29.437c-3.77-11.613-4.028-24.080-0.741-35.84 3.287-11.757 9.972-22.282 19.218-30.256l0.010-0.010 181.342-158.467-54.23-235.334c-2.77-11.869-1.98-24.294 2.273-35.718s11.778-21.341 21.636-28.509c9.858-7.171 21.611-11.277 33.789-11.805 12.176-0.525 24.237 2.547 34.676 8.838l630.45 461.488zM937.264 504.486l-0.566-0.493-181.302-158.227 0.269-1.168 54.042-234.406c2.771-11.869 1.981-24.294-2.272-35.718s-11.779-21.341-21.635-28.509c-9.859-7.171-21.613-11.277-33.792-11.805-12.176-0.525-24.24 2.55-34.682 8.842l-205.472 124.627-205.032-124.627 630.443 461.485z" />
<glyph unicode="&#xe92d;" glyph-name="share" d="M588.448 269.955l1.376-0.886 1.139 1.174c14.691 15.117 32.266 27.133 51.683 35.334s40.285 12.426 61.363 12.419v0c33.747 0.013 66.608-10.778 93.776-30.794s47.213-48.205 57.203-80.438c9.987-32.23 9.395-66.816-1.693-98.688-11.088-31.869-32.090-59.354-59.93-78.426-27.837-19.072-61.053-28.73-94.778-27.558-33.722 1.168-66.189 13.107-92.637 34.061-26.451 20.957-45.494 49.83-54.349 82.394-8.851 32.563-7.046 67.104 5.152 98.566l0.589 1.523-187.149 120.285-1.139-1.168c-21.926-22.512-50.070-37.974-80.83-44.41s-62.741-3.549-91.854 8.285c-29.113 11.837-54.035 32.083-71.58 58.157s-26.917 56.784-26.917 88.211c0 31.427 9.372 62.138 26.917 88.211s42.467 46.32 71.58 58.157c29.113 11.834 61.093 14.72 91.854 8.285s58.904-21.898 80.83-44.41l1.139-1.168 187.152 120.286-0.592 1.524c-14.189 36.495-14.317 76.958-0.365 113.543s40.992 66.687 75.878 84.468c34.883 17.781 75.13 21.976 112.931 11.771s70.467-34.083 91.664-67.005c21.197-32.921 29.414-72.541 23.059-111.177-6.352-38.636-26.829-73.538-57.453-97.935s-69.219-36.557-108.298-34.115c-39.078 2.438-75.859 19.302-103.213 47.322l-1.139 1.168-187.149-120.288 0.595-1.523c14.323-36.73 14.323-77.498 0-114.227l-0.595-1.523 1.376-0.886 184.4-118.518zM758.454 817.481c-16.115 10.768-35.062 16.516-54.445 16.516-25.99 0-50.918-10.325-69.296-28.703s-28.704-43.305-28.704-69.297c0-19.382 5.747-38.33 16.515-54.446s26.074-28.677 43.981-36.094c17.907-7.418 37.613-9.357 56.624-5.578 19.008 3.783 36.47 13.116 50.176 26.822s23.040 31.167 26.822 50.178c3.779 19.010 1.84 38.715-5.578 56.622s-19.978 33.213-36.096 43.981zM201.564 366.512c16.116-10.768 35.063-16.515 54.446-16.515 25.991 0 50.918 10.326 69.296 28.704s28.704 43.306 28.704 69.296c0 19.382-5.747 38.33-16.515 54.445-10.768 16.118-26.075 28.678-43.982 36.096s-37.612 9.357-56.622 5.578c-19.010-3.782-36.472-13.117-50.178-26.822s-23.039-31.168-26.82-50.176c-3.781-19.011-1.841-38.717 5.577-56.624s19.978-33.213 36.094-43.981zM649.565 78.512c16.115-10.768 35.062-16.515 54.445-16.515 25.99 0 50.918 10.326 69.296 28.704s28.704 43.306 28.704 69.296c0 19.382-5.747 38.33-16.515 54.445-10.768 16.118-26.074 28.678-43.981 36.096s-37.613 9.357-56.624 5.578c-19.008-3.782-36.47-13.117-50.176-26.822s-23.040-31.168-26.822-50.176c-3.779-19.011-1.84-38.717 5.578-56.624s19.978-33.213 36.096-43.981z" />
<glyph unicode="&#xe92e;" glyph-name="shapes" d="M284.465 713.488v-0.001l159.999-479.999c1.504-4.512 1.914-9.312 1.197-14.013-0.717-4.698-2.541-9.162-5.318-13.018-2.781-3.856-6.438-6.995-10.669-9.162s-8.918-3.296-13.67-3.296h-320.001c-4.754 0-9.44 1.13-13.671 3.296s-7.888 5.306-10.668 9.162c-2.78 3.856-4.603 8.32-5.32 13.018-0.717 4.701-0.307 9.501 1.197 14.013v0l160 480c1.99 5.975 5.81 11.172 10.919 14.854s11.246 5.665 17.544 5.665c6.298 0 12.436-1.982 17.544-5.665s8.928-8.88 10.919-14.854zM138.505 256.634l-0.877-2.634h236.75l-0.877 2.634-117.499 352.49-117.497-352.49zM864.003 158h2v164h-292v-164h290zM795.286 770.447c22.634-33.876 34.717-73.703 34.717-114.445-0.064-54.617-21.789-106.978-60.406-145.596-38.621-38.621-90.982-60.342-145.597-60.406-40.742 0-80.57 12.083-114.445 34.717-33.875 22.637-60.282 54.81-75.872 92.451s-19.67 79.060-11.722 119.020c7.949 39.96 27.568 76.666 56.378 105.476s65.514 48.429 105.475 56.378c39.958 7.948 81.379 3.869 119.021-11.723s69.814-41.995 92.451-75.872zM502.608 737.113c-16.042-24.010-24.605-52.237-24.605-81.113 0-38.723 15.382-75.856 42.762-103.238 27.379-27.379 64.515-42.762 103.238-42.762 28.877 0 57.104 8.563 81.114 24.605 24.010 16.045 42.72 38.845 53.773 65.523 11.050 26.678 13.942 56.034 8.307 84.355-5.632 28.321-19.539 54.336-39.958 74.754-20.416 20.419-46.432 34.324-74.752 39.957-28.323 5.633-57.677 2.742-84.355-8.308s-49.482-29.764-65.523-53.773zM544.003 382h352c7.955 0 15.587-3.162 21.213-8.787s8.787-13.258 8.787-21.213v-224c0-7.955-3.162-15.587-8.787-21.213s-13.258-8.787-21.213-8.787h-352c-7.958 0-15.587 3.162-21.213 8.787-5.629 5.626-8.787 13.258-8.787 21.213v224c0 7.955 3.158 15.587 8.787 21.213 5.626 5.626 13.254 8.787 21.213 8.787z" />
<glyph unicode="&#xe92f;" glyph-name="search" d="M715.884 288.942l-1.869-2.243 202.348-202.307c2.678-2.678 4.797-5.852 6.246-9.349s2.191-7.245 2.191-11.028c0-3.784-0.742-7.532-2.191-11.028s-3.569-6.671-6.246-9.349c-2.678-2.678-5.852-4.797-9.349-6.246s-7.245-2.191-11.028-2.191c-3.784 0-7.532 0.742-11.028 2.191s-6.671 3.569-9.349 6.246l-202.307 202.348-2.243-1.869c-69.059-57.523-157.64-86.205-247.306-80.087-89.669 6.124-173.526 46.582-234.125 112.952-60.6 66.376-93.278 153.559-91.236 243.413s38.647 175.462 102.2 239.015c63.553 63.553 149.16 100.158 239.015 102.2s177.037-30.636 243.413-91.236c66.371-60.6 106.829-144.457 112.952-234.125 6.118-89.667-22.564-178.248-80.087-247.306zM156.784 512.016v-0.004c0.086-77.201 30.793-151.221 85.384-205.811 54.591-54.595 128.608-85.299 205.812-85.386h0.004c57.594 0 113.895 17.080 161.782 49.075 47.887 32 85.212 77.476 107.254 130.688 22.036 53.21 27.807 111.76 16.568 168.248-11.233 56.487-38.968 108.374-79.693 149.099s-92.616 68.459-149.101 79.695c-56.487 11.236-115.038 5.469-168.248-16.571s-98.689-59.364-130.686-107.251c-31.997-47.888-49.076-104.188-49.076-161.782z" />
<glyph unicode="&#xe930;" glyph-name="robot" d="M542 768v-2h258c33.418 0 65.466-13.275 89.094-36.905 23.632-23.629 36.906-55.678 36.906-89.095v-448c0-33.418-13.274-65.466-36.906-89.094-23.629-23.632-55.677-36.906-89.094-36.906h-576c-33.417 0-65.466 13.274-89.095 36.906-23.63 23.629-36.905 55.677-36.905 89.094v448c0 33.417 13.275 65.466 36.905 89.095s55.678 36.905 89.095 36.905h258v130c0 7.956 3.162 15.587 8.787 21.213s13.258 8.787 21.213 8.787c7.955 0 15.587-3.161 21.213-8.787s8.787-13.257 8.787-21.213v-128zM546 352v2h-68v-100h68v98zM418 352v2h-50c-13.261 0-25.978-5.267-35.357-14.643-9.376-9.379-14.643-22.096-14.643-35.357s5.267-25.978 14.643-35.357c9.379-9.376 22.096-14.643 35.357-14.643h50v98zM606 256v-2h50c13.261 0 25.978 5.267 35.357 14.643 9.376 9.379 14.643 22.096 14.643 35.357s-5.267 25.978-14.643 35.357c-9.379 9.376-22.096 14.643-35.357 14.643h-50v-98zM846.669 145.331c12.378 12.378 19.331 29.165 19.331 46.669v448c0 17.504-6.954 34.292-19.331 46.669s-29.165 19.331-46.669 19.331h-576c-17.504 0-34.292-6.954-46.669-19.331s-19.331-29.165-19.331-46.669v-448c0-17.504 6.954-34.291 19.331-46.669s29.165-19.331 46.669-19.331h576c17.504 0 34.291 6.954 46.669 19.331zM368 414h288c29.174 0 57.152-11.59 77.782-32.218 20.627-20.63 32.218-48.608 32.218-77.782s-11.59-57.152-32.218-77.782c-20.63-20.627-48.608-32.218-77.782-32.218h-288c-29.174 0-57.153 11.59-77.782 32.218-20.629 20.63-32.218 48.608-32.218 77.782s11.589 57.152 32.218 77.782c20.629 20.627 48.607 32.218 77.782 32.218zM290 528c0 9.098 2.698 17.99 7.752 25.555s12.239 13.462 20.644 16.944c8.407 3.482 17.655 4.39 26.576 2.618 8.925-1.776 17.12-6.157 23.555-12.589 6.432-6.435 10.813-14.63 12.589-23.555 1.773-8.922 0.864-18.17-2.618-26.576s-9.379-15.59-16.944-20.643c-7.565-5.056-16.458-7.754-25.555-7.754-12.198 0-23.9 4.848-32.527 13.472-8.627 8.627-13.473 20.33-13.473 32.528zM642 528c0 9.098 2.698 17.99 7.754 25.555 5.053 7.565 12.237 13.462 20.643 16.944s17.654 4.39 26.576 2.618c8.925-1.776 17.12-6.157 23.555-12.589 6.432-6.435 10.813-14.63 12.589-23.555 1.773-8.922 0.864-18.17-2.618-26.576s-9.379-15.59-16.944-20.643c-7.565-5.056-16.458-7.754-25.555-7.754-12.198 0-23.901 4.848-32.528 13.472-8.624 8.627-13.472 20.33-13.472 32.528z" />
<glyph unicode="&#xe931;" glyph-name="present" d="M542 800v-2h322c16.445 0 32.214-6.532 43.84-18.159 11.629-11.627 18.16-27.397 18.16-43.841v-480c0-16.445-6.531-32.214-18.16-43.84-11.626-11.629-27.395-18.16-43.84-18.16h-161.603l89.040-111.248c2.464-3.078 4.294-6.611 5.392-10.397 1.098-3.789 1.44-7.754 1.005-11.67-0.438-3.917-1.638-7.712-3.542-11.165-1.901-3.453-4.464-6.496-7.539-8.957-3.078-2.464-6.611-4.294-10.397-5.392-3.789-1.098-7.754-1.44-11.67-1.005-3.917 0.438-7.712 1.638-11.165 3.542-3.453 1.901-6.496 4.464-8.957 7.539l-118.963 148.752h-227.2l-118.962-148.752c-4.973-6.214-12.212-10.202-20.124-11.082-7.912-0.877-15.849 1.421-22.065 6.397-6.216 4.973-10.202 12.211-11.081 20.122-0.879 7.914 1.421 15.85 6.394 22.064 0 0 0 0.003 0 0.003l89.042 111.248h-161.603c-16.444 0-32.213 6.531-43.841 18.16-11.627 11.626-18.159 27.395-18.159 43.84v480c0 16.444 6.532 32.213 18.159 43.841s27.397 18.159 43.841 18.159h322v66c0 7.956 3.162 15.587 8.787 21.213s13.258 8.787 21.213 8.787c7.955 0 15.587-3.161 21.213-8.787s8.787-13.257 8.787-21.213v-64zM864 254h2v484h-708v-484h706zM414 480v-96c0-7.955-3.162-15.587-8.787-21.213s-13.258-8.787-21.213-8.787c-7.955 0-15.587 3.162-21.213 8.787s-8.787 13.258-8.787 21.213v96c0 7.955 3.162 15.587 8.787 21.213s13.258 8.787 21.213 8.787c7.955 0 15.587-3.162 21.213-8.787s8.787-13.258 8.787-21.213zM542 544v-160c0-7.955-3.162-15.587-8.787-21.213s-13.258-8.787-21.213-8.787c-7.955 0-15.587 3.162-21.213 8.787s-8.787 13.258-8.787 21.213v160c0 7.955 3.162 15.587 8.787 21.213s13.258 8.787 21.213 8.787c7.955 0 15.587-3.162 21.213-8.787s8.787-13.258 8.787-21.213zM670 608v-224c0-7.955-3.162-15.587-8.787-21.213s-13.258-8.787-21.213-8.787c-7.955 0-15.587 3.162-21.213 8.787s-8.787 13.258-8.787 21.213v224c0 7.955 3.162 15.587 8.787 21.213s13.258 8.787 21.213 8.787c7.955 0 15.587-3.162 21.213-8.787s8.787-13.258 8.787-21.213z" />
</font>
</defs>
</svg>
